Loading...
Error

Скачать День, когда Земля остановилась / The Day the Earth Stood Still (Скотт Дерриксон) [2008, фантастика, триллер, драма, HDRip-AVC] [Dub]+[Sub]x2 торрент без регистрации

Статистика раздачи
Размер:  745 MB   |    Скачан:  20 раз
Сидов:  1  [  0 KB/s  ]  
 
 
 
Автор Сообщение

Marsianka

[] 

Информация о фильме
Название: День, когда Земля остановилась
Оригинальное название: The Day the Earth Stood Still
Год выхода: 2008
Жанр: фантастика, триллер, драма
Режиссер: Скотт Дерриксон
В ролях: Киану Ривз, Дженнифер Коннелли, Кэти Бейтс, Джейден Смит, Джон Клиз, Джон Хэмм

О фильме :
Над человечеством нависла серьезная угроза. Представители иных цивилизаций выдвинули землянам ультиматум, согласно которому у них есть последний шанс прекратить войны, вражду и беспорядки, мешающие остальным обитателям галактики. В противном случае планета будет уничтожена. Чтобы донести до жителей Земли эту информацию, сюда прибывает посланник Клаату, принявший человеческий облик, но не утерявший своих сверхспособностей. Инопланетный гость требует сбора совета ООН, чтобы официально заявить об ультиматуме, но правительство США отказывает ему, а сам Клаату становится объектом пристального внимания военных. Удастся ли инопланетянину убедить людей в том, что они ведут себя неправильно, и сможет ли человечество пройти переоценку ценностей?



Страна: Twentieth Century-Fox Film Corporation / CША
Продолжительность: 01:43:35
Перевод: Профессиональный (полное дублирование)

Файл
Формат: MKV
Качество: HDRip-AVC
Видео: MPEG-4 AVC, 768x328, ~ 929 Кбит/с
Аудио: AAC-LC, 2 ch, ~76 Кбит/с
Субтитры: Русские, украинские
Общее
Уникальный идентификатор : 236806805893547366041324455743546604051 (0xB22754F427A66F31912F007D3E323A13)
Полное имя : D:MOVIESThe.Day.the.Earth.Stood.Still.2008.ExKinoRay.mkv
Формат : Matroska
Версия формата : Version 4 / Version 2
Размер файла : 745 Мбайт
Продолжительность : 1 ч. 43 м.
Общий поток : 1005 Кбит/сек
Дата кодирования : UTC 2017-10-17 11:06:07
Программа кодирования : mkvmerge v15.0.0 ('Duel with the Devil') 64-bit
Библиотека кодирования : libebml v1.3.5 + libmatroska v1.4.5

Видео
Идентификатор : 1
Формат : AVC
Формат/Информация : Advanced Video Codec
Профиль формата : High@L4.1
Параметр CABAC формата : Да
Параметр RefFrames формата : 10 кадров
Идентификатор кодека : V_MPEG4/ISO/AVC
Продолжительность : 1 ч. 43 м.
Битрейт : 929 Кбит/сек
Ширина : 768 пикселей
Высота : 328 пикселей
Соотношение сторон : 2,35:1
Режим частоты кадров : Постоянный
Частота кадров : 23,976 (24000/1001) кадра/сек
Цветовое пространство : YUV
Субдискретизация насыщенности : 4:2:0
Битовая глубина : 8 бит
Тип развёртки : Прогрессивная
Бит/(Пиксели*Кадры) : 0.154
Размер потока : 687 Мбайт (92%)
Библиотека кодирования : x264 core 152 r2851kMod ba24899
Настройки программы : cabac=1 / ref=10 / deblock=1:-3:-2 / analyse=0x3:0x133 / me=umh / subme=11 / psy=1 / fade_compensate=0.00 / psy_rd=1.00:0.15 / mixed_ref=1 / me_range=32 / chroma_me=1 / trellis=2 / 8x8dct=1 / cqm=0 / deadzone=21,11 / fast_pskip=0 / chroma_qp_offset=-3 / threads=6 / lookahead_threads=1 / sliced_threads=0 / nr=0 / decimate=0 / interlaced=0 / bluray_compat=0 / constrained_intra=0 / bframes=10 / b_pyramid=2 / b_adapt=2 / b_bias=0 / direct=3 / weightb=1 / open_gop=0 / weightp=2 / keyint=240 / keyint_min=23 / scenecut=40 / intra_refresh=0 / rc_lookahead=40 / rc=2pass / mbtree=1 / bitrate=929 / ratetol=1.0 / qcomp=0.60 / qpmin=0 / qpmax=69 / qpstep=4 / cplxblur=20.0 / qblur=0.5 / vbv_maxrate=50000 / vbv_bufsize=62500 / nal_hrd=none / filler=0 / ip_ratio=1.40 / aq=3:1.00
Default : Да
Forced : Нет

Аудио
Идентификатор : 2
Формат : AAC
Формат/Информация : Advanced Audio Codec
Профиль формата : LC
Идентификатор кодека : A_AAC
Продолжительность : 1 ч. 43 м.
Битрейт : 76,0 Кбит/сек
Каналы : 2 канала
Расположение каналов : Front: L R
Частота : 48,0 КГц
Частота кадров : 46,875 кадров/сек (1024 SPF)
Метод сжатия : С потерями
Задержка видео : 9 мс.
Размер потока : 56,3 Мбайт (8%)
Язык : Russian
Default : Да
Forced : Нет

Текст #1
Идентификатор : 3
Формат : UTF-8
Идентификатор кодека : S_TEXT/UTF8
Идентификатор кодека/Информация : UTF-8 Plain Text
Продолжительность : 39 м. 3 с.
Битрейт : 3 бит/сек
ElementCount : 22
Размер потока : 1,12 Кбайт (0%)
Заголовок : Fors
Язык : Russian
Default : Да
Forced : Да

Текст #2
Идентификатор : 4
Формат : UTF-8
Идентификатор кодека : S_TEXT/UTF8
Идентификатор кодека/Информация : UTF-8 Plain Text
Продолжительность : 1 ч. 36 м.
Битрейт : 77 бит/сек
ElementCount : 958
Размер потока : 54,8 Кбайт (0%)
Язык : Russian
Default : Нет
Forced : Нет

Текст #3
Идентификатор : 5
Формат : UTF-8
Идентификатор кодека : S_TEXT/UTF8
Идентификатор кодека/Информация : UTF-8 Plain Text
Продолжительность : 1 ч. 29 м.
Битрейт : 1 бит/сек
ElementCount : 24
Размер потока : 1,05 Кбайт (0%)
Заголовок : Fors
Язык : Ukrainian
Default : Нет
Forced : Нет

Текст #4
Идентификатор : 6
Формат : UTF-8
Идентификатор кодека : S_TEXT/UTF8
Идентификатор кодека/Информация : UTF-8 Plain Text
Продолжительность : 1 ч. 36 м.
Битрейт : 68 бит/сек
ElementCount : 959
Размер потока : 48,6 Кбайт (0%)
Язык : Ukrainian
Default : Нет
Forced : Нет

Меню
00:00:00.000 : en:Глава 1
00:05:24.280 : en:Глава 2
00:12:39.720 : en:Глава 3
00:17:58.600 : en:Глава 4
00:24:22.720 : en:Глава 5
00:31:16.600 : en:Глава 6
00:36:24.200 : en:Глава 7
00:41:11.400 : en:Глава 8
00:48:53.440 : en:Глава 9
00:55:32.640 : en:Глава 10
01:02:05.320 : en:Глава 11
01:06:26.360 : en:Глава 12
01:16:56.080 : en:Глава 13
01:24:03.760 : en:Глава 14
01:38:04.640 : en:Глава 15
Релиз от:



Скачать День.когда.Земля.остановилась.The.Day.the.Earth.Stood.Still.(Скотт.Дерриксон).[2008.фантастика.триллер.драма.HDRip-AVC].[Dub]+[Sub]x2.torrent без регистрации
Золото ЗОЛОТАЯ РАЗДАЧА! СКАЧАННОЕ НЕ ЗАСЧИТЫВАЕТСЯ! Золото
Дата: Зарегистрирован   [ Тип: внутренний ] Как тут cкачать?
MAGNET ссылка
MAGNET ссылка


Скачать .torrent

15 KB

Статус: проверено DHT
Скачан: торрент - 20 раз, раздача полностью - 5 раз
Размер: 745 MB
Оценка:  5 (Голосов: 1)
Поблагодарили: 0
Поделиться ссылкой на эту раздачу с друзьями:
В контактеFacebookОдноклассникиTwitterLivejournalМой МирLiveinternet
 

 
Показать сообщения:    


Вы не можете начинать темы
Вы не можете отвечать на сообщения
Вы не можете редактировать свои сообщения
Вы не можете удалять свои сообщения
Вы не можете голосовать в опросах
Вы не можете прикреплять файлы к сообщениям
Вы можете скачивать файлы