Loading...
Error

Скачать Граница / Frontier (Сезон 02) (Брэд Пэйтон, Джон Ватчер, Келли Мэкин) [2017, Историческая драма, приключения, WEB-DL] [1080p] [MVO] (FocusStudio) торрент без регистрации

Статистика раздачи
Размер:  9,46 GB   |    Скачан:  7 раз
Сидов:  1  [  0 KB/s  ]  
 
 
 
Автор Сообщение

leon030982

[] 


Граница | Frontier


Год выпуска: 2017
Страна: Канада/США, Discovery/Netflix
Жанр: Историческая драма, приключения
Продолжительность: ~ 00:45:00
Озвучание:: Профессиональное (многоголосое закадровое) FocusStudio
Субтитры: русские (форсированные)

Режиссёр: Брэд Пэйтон, Джон Ватчер, Келли Мэкин

В ролях: Диана Бентли, Бриэнн Хилл, Джейсон Момоа, Джессика Мэттен, Пол Ивэн Уилсон, Майкл Патрик, Уильям Белло, Пол Фауте, Эван Джонигкейт, Кристиан МакКэй, Лайла Портер Фоллоус и др.

Описание: Сериал расскажет о жестокой и кровавой борьбе за богатство и власть в торговле пушниной на просторах Северной Америки в XVIII веке. Бизнес приходится вести в очень сложных условиях жестокого противостояния коренных племён и понаехавших на континент европейцев.



Релиз --

Качество: WEB-DL [1080p]
Формат: MKV
Видео: 1920x1080, 23.976 fps, MPEG-4 AVC ~3500 kbps
Аудио: Rus: 48 kHz, AC3, 6 ch, ~384 kbps
Аудио: Eng: 48 kHz, AC3, 6 ch, ~384 kbps
Format : Matroska
Format version : Version 4 / Version 2
File size : 1.72 GiB
Duration : 51 min
Overall bit rate mode : Variable
Overall bit rate : 4 753 kb/s
Movie name : Frontier 2x01 @ FocusStudio
Encoded date : UTC 2017-12-05 09:31:15
Writing application : mkvmerge v8.1.0 ('Psychedelic Postcard') 64bit
Writing library : libebml v1.3.1 + libmatroska v1.4.2

Video
ID : 1
Format : AVC
Format/Info : Advanced Video Codec
Format profile : Main@L4
Format settings, CABAC : Yes
Format settings, ReFrames : 3 frames
Codec ID : V_MPEG4/ISO/AVC
Duration : 51 min
Bit rate mode : Variable
Bit rate : 4 020 kb/s
Maximum bit rate : 6 030 kb/s
Width : 1 920 pixels
Height : 1 080 pixels
Display aspect ratio : 16:9
Frame rate mode : Constant
Frame rate : 23.976 (24000/1001) FPS
Color space : YUV
Chroma subsampling : 4:2:0
Bit depth : 8 bits
Scan type : Progressive
Bits/(Pixel*Frame) : 0.081
Stream size : 1.40 GiB (82%)
Writing library : x264 core 148
Encoding settings : cabac=1 / ref=3 / deblock=1:0:0 / analyse=0x1:0x111 / me=umh / subme=10 / psy=1 / psy_rd=1.00:0.00 / mixed_ref=1 / me_range=24 / chroma_me=1 / trellis=2 / 8x8dct=0 / cqm=0 / deadzone=21,11 / fast_pskip=1 / chroma_qp_offset=-2 / threads=8 / lookahead_threads=1 / sliced_threads=0 / nr=0 / decimate=1 / interlaced=0 / bluray_compat=0 / stitchable=1 / constrained_intra=0 / bframes=2 / b_pyramid=0 / b_adapt=2 / b_bias=0 / direct=3 / weightb=1 / open_gop=0 / weightp=2 / keyint=48 / keyint_min=25 / scenecut=0 / intra_refresh=0 / rc_lookahead=48 / rc=2pass / mbtree=1 / bitrate=4020 / ratetol=1.0 / qcomp=0.50 / qpmin=6 / qpmax=51 / qpstep=4 / cplxblur=20.0 / qblur=0.5 / vbv_maxrate=6030 / vbv_bufsize=8040 / nal_hrd=vbr / filler=0 / ip_ratio=1.40 / aq=1:1.00
Default : Yes
Forced : No

Audio #1
ID : 2
Format : AC-3
Format/Info : Audio Coding 3
Mode extension : CM (complete main)
Format settings, Endianness : Big
Codec ID : A_AC3
Duration : 51 min
Bit rate mode : Constant
Bit rate : 384 kb/s
Channel(s) : 6 channels
Channel positions : Front: L C R, Side: L R, LFE
Sampling rate : 48.0 kHz
Frame rate : 31.250 FPS (1536 spf)
Compression mode : Lossy
Stream size : 142 MiB (8%)
Title : MVO FocusStudio
Language : Russian
Default : Yes
Forced : No

Audio #2
ID : 3
Format : AC-3
Format/Info : Audio Coding 3
Mode extension : CM (complete main)
Format settings, Endianness : Big
Codec ID : A_AC3
Duration : 51 min
Bit rate mode : Constant
Bit rate : 384 kb/s
Channel(s) : 6 channels
Channel positions : Front: L C R, Side: L R, LFE
Sampling rate : 48.0 kHz
Frame rate : 31.250 FPS (1536 spf)
Compression mode : Lossy
Stream size : 142 MiB (8%)
Language : English
Default : No
Forced : No

Text
ID : 4
Format : UTF-8
Codec ID : S_TEXT/UTF8
Codec ID/Info : UTF-8 Plain Text
Title : Forced
Language : Russian
Default : Yes
Forced : Yes



Скачать Граница.Frontier.(Сезон.02).(Брэд.Пэйтон.Джон.Ватчер.Келли.Мэкин).[2017.Историческая.драма.приключения.WEB-DL].[1080p].[MVO].(FocusStudio).torrent без регистрации
Золото ЗОЛОТАЯ РАЗДАЧА! СКАЧАННОЕ НЕ ЗАСЧИТЫВАЕТСЯ! Золото
Дата: Зарегистрирован   [ Тип: внутренний ] Как тут cкачать?
MAGNET ссылка
MAGNET ссылка


Скачать .torrent

95 KB

Статус: проверено DHT
Скачан: торрент - 7 раз, раздача полностью - 3 раз
Размер: 9,46 GB
Оценка:  5 (Голосов: 1)
Поблагодарили: 1
Поделиться ссылкой на эту раздачу с друзьями:
В контактеFacebookОдноклассникиTwitterLivejournalМой МирLiveinternet
 

 
Показать сообщения:    


Вы не можете начинать темы
Вы не можете отвечать на сообщения
Вы не можете редактировать свои сообщения
Вы не можете удалять свои сообщения
Вы не можете голосовать в опросах
Вы не можете прикреплять файлы к сообщениям
Вы можете скачивать файлы