Loading...
Error

Скачать Меган Ливи / Megan Leavey (Габриэла Каупертвэйте) [2017, драма, военный, биография, BDRip] [720p] [MVO] [iTunes] торрент без регистрации

Статистика раздачи
Размер:  5,07 GB   |    Скачан:  137 раз
Сидов:  1  [  0 KB/s  ]  
 
 
 
Автор Сообщение

МихаНЕзатор

[] 

Информация о фильме
Наименование: Меган Ливи
Оригинальное наименование: Megan Leavey
Произведено: США
Категория: драма, военный, биография
Продолжительность: 01:57:11
Перевод: Профессиональный (многоголосый, закадровый) [iTunes]
Субтитры: английские (full)

Режиссер постановщик: Габриэла Каупертвэйте

В главных ролях: Кейт Мара, Джеральдин Джеймс, Брэдли Уитфорд, Том Фелтон, Иди Фалько, Коммон, Уилл Пэттон, Шеннон Тарбет, Рамон Родригес, Кори Джонсон

О фильме: Сюжет фильма основан на реальной истории о молодой женщине-капрале Меган Ливи (Кейт Мара), которой удалось спасти жизни многих людей во время войны в Ираке благодаря своей уникальной дисциплине и преданному боевому товарищу – овчарке по кличке Рекс. В течение нескольких лет службы Меган и Рекс выполнили более 100 миссий, пока однажды они не получили серьезное ранение в результате взрыва самодельного устройства, поставившего их будущее под угрозу



Файл
Качество: BDRip 720p
Видео данные: MPEG-4 AVC, 5200 kb/s, 1280x536, 23.976 fps
Аудио данные 1: 48 kHz, AC3 Dolby Digital, 3/2 (L,C,R,l,r) + LFE ch, ~384 kbps
Аудио данные 2: 48 kHz, AC3 Dolby Digital, 3/2 (L,C,R,l,r) + LFE ch, ~640 kbps

Торент обновлен! Лицензия

АНОНСЫ ПОПУЛЯРНЫХ РАЗДАЧ
General
Unique ID : 172746843903826185286735506617988687896 (0x81F5D4FA7F2932D1B902E5E6BC822818)
Complete name : D:Рабочий столMegan.Leavey.2017.P.BDRip.720p.mkv
Format : Matroska
Format version : Version 4 / Version 2
File size : 3.71 GiB
Duration : 1 h 57 min
Overall bit rate mode : Constant
Overall bit rate : 4 537 kb/s
Movie name : Riverdale S02E01 Chapter Fourteen: A Kiss Before Dying
Encoded date : UTC 2017-10-22 19:18:00
Writing application : mkvmerge v8.3.0 ('Over the Horizon') 64bit
Writing library : libebml v1.3.1 + libmatroska v1.4.2

Video
ID : 1
Format : AVC
Format/Info : Advanced Video Codec
Format profile : Main@L3.1
Format settings, CABAC : Yes
Format settings, ReFrames : 3 frames
Codec ID : V_MPEG4/ISO/AVC
Duration : 1 h 57 min
Bit rate mode : Constant
Bit rate : 4 000 kb/s
Width : 1 280 pixels
Height : 536 pixels
Display aspect ratio : 2.40:1
Frame rate mode : Constant
Frame rate : 23.976 (23976/1000) FPS
Standard : NTSC
Color space : YUV
Chroma subsampling : 4:2:0
Bit depth : 8 bits
Scan type : Progressive
Bits/(Pixel*Frame) : 0.243
Stream size : 3.19 GiB (86%)
Language : English
Default : Yes
Forced : No
Color range : Limited

Audio
ID : 2
Format : AC-3
Format/Info : Audio Coding 3
Mode extension : CM (complete main)
Format settings, Endianness : Big
Codec ID : A_AC3
Duration : 1 h 57 min
Bit rate mode : Constant
Bit rate : 640 kb/s
Channel(s) : 2 channels
Channel positions : Front: L R
Sampling rate : 48.0 kHz
Frame rate : 31.250 FPS (1536 spf)
Compression mode : Lossy
Stream size : 536 MiB (14%)
Default : Yes
Forced : No



Скачать Меган.Ливи.Megan.Leavey.(Габриэла.Каупертвэйте).[2017.драма.военный.биография.BDRip].[720p].[MVO].[iTunes].torrent без регистрации
Золото ЗОЛОТАЯ РАЗДАЧА! СКАЧАННОЕ НЕ ЗАСЧИТЫВАЕТСЯ! Золото
Дата: Зарегистрирован   [ Тип: внутренний ] Как тут cкачать?
MAGNET ссылка
MAGNET ссылка


Скачать .torrent

26 KB

Статус: проверено DHT
Скачан: торрент - 137 раз, раздача полностью - 12 раз
Размер: 5,07 GB
Оценка:  5 (Голосов: 2)
Поблагодарили: 5
Поделиться ссылкой на эту раздачу с друзьями:
В контактеFacebookОдноклассникиTwitterLivejournalМой МирLiveinternet
 

 
Показать сообщения:    


Вы не можете начинать темы
Вы не можете отвечать на сообщения
Вы не можете редактировать свои сообщения
Вы не можете удалять свои сообщения
Вы не можете голосовать в опросах
Вы не можете прикреплять файлы к сообщениям
Вы можете скачивать файлы