Loading...
Error

Скачать Руины / The Ruins (Картер Смит) [2008, ужасы, триллер, HDRip-AVC] [Dub]+[DVO]+[MVO]+[Sub]x3 торрент без регистрации

Статистика раздачи
Размер:  1,45 GB   |    Скачан:  40 раз
Сидов:  1  [  0 KB/s  ]  
 
 
 
Автор Сообщение

Marsianka

[] 

Информация о фильме
Название: Руины
Оригинальное название: The Ruins
Год выхода: 2008
Жанр: ужасы, триллер
Режиссер: Картер Смит
В ролях: Джонатан Такер, Джена Мэлоун, Лаура Рэмси, Шон Эшмор, Джо Андерсон, Серхио Кальдерон, Джесси Рамирез, Балдер Морено, Димитрий Бавеас, Патрицио Альмейда Родригеc

О фильме :
Кинокартина повествует о группе друзей, захотевших отвлечься от городской суеты. Ради этого герои фильма «Руины» решают отправиться в захватывающее путешествие к древней пирамиде, построенной сотни лет назад индейцами легендарного племени майя. Когда ребята готовились к поездке, то они рассчитывали отлично провести время на природе, чтобы затем с новыми силами вернуться к своей обыденности в родном Чикаго. Но герои даже подумать не могли, что их странствия окончатся ужасным происшествием. Приехав в Мексику, ребята знакомятся с загадочным молодым человеком, утверждающим, что он всё знает о здешних землях. Они соглашаются с его предложением провести их по джунглям. Но тут, вдали от цивилизации, герои встречают потомков древнего племени Майя, которые не очень рады белым «пришельцам». После этого путешественники пробуждают древнее зло, тем самым навлекая на себя гнев местных жителей и их давно умерших предков…



Выпущено: Германия, США, Австралия / DreamWorks SKG, Red Hour Films
Продолжительность: 01:33:25
Дублированный (с двухголосыми вставками) , Профессиональный (многоголосый, закадровый)
Субтитры: Русские, украинские, английские
Файл
Формат: MKV
Качество: HDRip-AVC
Видео: MPEG-4 AVC, 960x408, ~ 1464 Кбит/с
Аудио 1: AC-3, 48.0 KHz, 6.0 ch, 384 Kbps | Дублированный
Аудио 2: AC-3, 48.0 KHz, 6.0 ch, 384 Kbps | Профессиональный многоголосый
Общее
Уникальный идентификатор : 221623617787851630440665180768342247797 (0xA6BB27FBF195311EB6DA9901AD160975)
Полное имя : D:MOVIESThe.Ruins.2008.ExKinoRay.mkv
Формат : Matroska
Версия формата : Version 4 / Version 2
Размер файла : 1,45 Гбайт
Продолжительность : 1 ч. 33 м.
Общий поток : 2229 Кбит/сек
Дата кодирования : UTC 2017-10-24 20:36:53
Программа кодирования : mkvmerge v15.0.0 ('Duel with the Devil') 64-bit
Библиотека кодирования : libebml v1.3.5 + libmatroska v1.4.5

Видео
Идентификатор : 1
Формат : AVC
Формат/Информация : Advanced Video Codec
Профиль формата : High@L4.1
Параметр CABAC формата : Да
Параметр RefFrames формата : 10 кадров
Идентификатор кодека : V_MPEG4/ISO/AVC
Продолжительность : 1 ч. 33 м.
Битрейт : 1464 Кбит/сек
Ширина : 960 пикселей
Высота : 408 пикселей
Соотношение сторон : 2,35:1
Режим частоты кадров : Постоянный
Частота кадров : 23,976 (24000/1001) кадра/сек
Цветовое пространство : YUV
Субдискретизация насыщенности : 4:2:0
Битовая глубина : 8 бит
Тип развёртки : Прогрессивная
Бит/(Пиксели*Кадры) : 0.156
Размер потока : 975 Мбайт (65%)
Библиотека кодирования : x264 core 152 r2851kMod ba24899
Настройки программы : cabac=1 / ref=10 / deblock=1:-3:-2 / analyse=0x3:0x113 / me=umh / subme=11 / psy=1 / fade_compensate=0.00 / psy_rd=1.00:0.10 / mixed_ref=1 / me_range=32 / chroma_me=1 / trellis=2 / 8x8dct=1 / cqm=0 / deadzone=21,11 / fast_pskip=0 / chroma_qp_offset=-3 / threads=6 / lookahead_threads=1 / sliced_threads=0 / nr=0 / decimate=0 / interlaced=0 / bluray_compat=0 / constrained_intra=0 / bframes=10 / b_pyramid=2 / b_adapt=2 / b_bias=0 / direct=3 / weightb=1 / open_gop=0 / weightp=2 / keyint=240 / keyint_min=23 / scenecut=40 / intra_refresh=0 / rc_lookahead=40 / rc=2pass / mbtree=1 / bitrate=1464 / ratetol=1.0 / qcomp=0.60 / qpmin=0 / qpmax=69 / qpstep=4 / cplxblur=20.0 / qblur=0.5 / vbv_maxrate=50000 / vbv_bufsize=62500 / nal_hrd=none / filler=0 / ip_ratio=1.40 / aq=3:1.00
Default : Да
Forced : Нет

Аудио #1
Идентификатор : 2
Формат : AC-3
Формат/Информация : Audio Coding 3
Параметр Endianness формата : Big
Идентификатор кодека : A_AC3
Продолжительность : 1 ч. 33 м.
Вид битрейта : Постоянный
Битрейт : 384 Кбит/сек
Каналы : 6 каналов
Расположение каналов : Front: L C R, Side: L R, LFE
Частота : 48,0 КГц
Частота кадров : 31,250 кадров/сек (1536 SPF)
Битовая глубина : 16 бит
Метод сжатия : С потерями
Размер потока : 257 Мбайт (17%)
Язык : Russian
Default : Да
Forced : Нет

Аудио #2
Идентификатор : 3
Формат : AC-3
Формат/Информация : Audio Coding 3
Параметр Endianness формата : Big
Идентификатор кодека : A_AC3
Продолжительность : 1 ч. 33 м.
Вид битрейта : Постоянный
Битрейт : 384 Кбит/сек
Каналы : 6 каналов
Расположение каналов : Front: L C R, Side: L R, LFE
Частота : 48,0 КГц
Частота кадров : 31,250 кадров/сек (1536 SPF)
Битовая глубина : 16 бит
Метод сжатия : С потерями
Размер потока : 257 Мбайт (17%)
Язык : Russian
Default : Нет
Forced : Нет

Текст #1
Идентификатор : 4
Формат : UTF-8
Идентификатор кодека : S_TEXT/UTF8
Идентификатор кодека/Информация : UTF-8 Plain Text
Продолжительность : 1 ч. 26 м.
Битрейт : 72 бит/сек
ElementCount : 1023
Размер потока : 45,6 Кбайт (0%)
Язык : Russian
Default : Нет
Forced : Нет

Текст #2
Идентификатор : 5
Формат : UTF-8
Идентификатор кодека : S_TEXT/UTF8
Идентификатор кодека/Информация : UTF-8 Plain Text
Продолжительность : 1 ч. 26 м.
Битрейт : 73 бит/сек
ElementCount : 1023
Размер потока : 46,4 Кбайт (0%)
Язык : Ukrainian
Default : Нет
Forced : Нет

Текст #3
Идентификатор : 6
Формат : UTF-8
Идентификатор кодека : S_TEXT/UTF8
Идентификатор кодека/Информация : UTF-8 Plain Text
Продолжительность : 1 ч. 26 м.
Битрейт : 45 бит/сек
ElementCount : 1039
Размер потока : 29,0 Кбайт (0%)
Язык : English
Default : Нет
Forced : Нет
Релиз от:



Скачать Руины.The.Ruins.(Картер.Смит).[2008.ужасы.триллер.HDRip-AVC].[Dub]+[DVO]+[MVO]+[Sub]x3.torrent без регистрации
Золото ЗОЛОТАЯ РАЗДАЧА! СКАЧАННОЕ НЕ ЗАСЧИТЫВАЕТСЯ! Золото
Дата: Зарегистрирован   [ Тип: внутренний ] Как тут cкачать?
MAGNET ссылка
MAGNET ссылка


Скачать .torrent

16 KB

Статус: проверено DHT
Скачан: торрент - 40 раз, раздача полностью - 21 раз
Размер: 1,45 GB
Оценка:  - (Голосов: 0)
Поблагодарили: 0
Поделиться ссылкой на эту раздачу с друзьями:
В контактеFacebookОдноклассникиTwitterLivejournalМой МирLiveinternet
 

 
Показать сообщения:    


Вы не можете начинать темы
Вы не можете отвечать на сообщения
Вы не можете редактировать свои сообщения
Вы не можете удалять свои сообщения
Вы не можете голосовать в опросах
Вы не можете прикреплять файлы к сообщениям
Вы можете скачивать файлы