Loading...
Error

Скачать Туман / The Fog (Руперт Уэйнрайт) [2005, ужасы, WEB-DL] [1080p] [Open Matte] [Dub]+[MVO]+[DVO]+[Eng]+[Sub Rus, Eng]x2 торрент без регистрации

Статистика раздачи
Размер:  7,42 GB   |    Скачан:  20 раз
Сидов:  1  [  0 KB/s  ]  
 
 
 
Автор Сообщение

Marsianka

[] 

Информация о фильме
Название: Туман
Оригинальное название: The Fog
Год выхода: 2005
Жанр: ужасы
Режиссер: Руперт Уэйнрайт
В ролях: Том Уэллинг, Мэгги Грэйс, Сэльма Блэр, ДеРэй Дэвис, Кеннет Уэлш, Адриан Хью, Сара Ботсфорд, Коул Хэппелл, Мэри Блэк, Джонатан Янг

О фильме:
Когда-то в очень туманную ночь жители небольшого городка Антонио совершили страшное злодеяние — разграбили и сожгли корабль, перевозивший группу прокаженных. С тех пор прошло почти сто лет, о происшествии давно забыли. Жизнь в портовом городке течет спокойно и безмятежно. Но однажды ночью Антонио внезапно окутывает зловещий густой туман, принесший с собой души призраков, за век не нашедших успокоения и жаждущих мести..



Страна: США
Студия: Revolution Studios
Продолжительность: 01:39:55
Перевод: Профессиональный (дублированный) R5 + Профессиональный (многоголосый, закадровый) Первый канал + Профессиональный (двухголосый, закадровый) Tycoon Studio

Файл
Качество: WEB-DL 1080p | Open Matte
Формат: Matroska
Видео: 1920x1080 at 23.976 fps, MPEG-4 AVC, ~8759 kbps avg
Аудио#1: Russian: 48 kHz, AC3, 3/2 (L,C,R,l,r) + LFE ch, ~448 kbps avg |Дубляж, R5|
Аудио#2: Russian: 48 kHz, AC3, 2.0 (L,R) ch, ~192 kbps avg |Профессиональный многоголосый, Первый канал|
Аудио#3: Russian: 48 kHz, AC3, 3/2 (L,C,R,l,r) + LFE ch, ~384 kbps avg |Профессиональный двухголосый, Tycoon Studio|
Аудио#4: English: 48 kHz, E-AC3, 3/2 (L,C,R,l,r) + LFE ch, ~640 kbps avg
Субтитры: Russian (Tycoon Studio), English (SDH, Amazon)
***Исходник видео - WEB-DL Amazon.
***Релиз - spartanec163.
Ремейк одноименного фильма Джона Карпентера 1980 года.
Ремейк предлагали снимать самому Карпентеру. Он отказался, мотивировав это тем, что однажды свой «Туман» уже снял, и остался на проекте продюсером.
Компания Revolution Studios дала «зеленый свет» проекту еще до того, как был написан сценарий.
Дебра Хилл, с которой Карпентер написал сценарий оригинального «Тумана», скончалась незадолго до начала съемок ремейка.
Стиви Уэйн должна была сыграть Стэйси Фергюсон, солистка группы Black Eyed Peas, однако в последний момент она выбыла из проекта.
Джулия Стайлс проявила интерес к роли Элизабет Уильямс, и специально под нее героиню сделали чуть старше. Когда же Стайлс выбыла из проекта, роль перешла Мэгги Грэйс, и уже под нее Элизабет вновь сделали моложе.
Селма Блэйр была первой кандидатурой на роль Стиви. Однако в тот момент все думали, что Джулия Стайлс сыграет Элизабет, и, очевидно, не хотели вновь сталкивать в фильме Стайлс и Блэйр, которые уже дважды играли вместе — в фильмах «Только ты и я» (2000 и «Мальчишник» (2003).
Мэгги Грэйс обошла Эмили де Рэвин, свою главную конкурентку и партнершу по сериалу «Остаться в живых» (Lost).
На роль Ника Касла претендовали Дэвид Борназ, Джесси Меткалф, Мэттью Дэвис, Генри Кэвилл, Адам Гарсиа, Майкл Кэссиди, Оливер Хадсон, Питер Фасинелли, Мэттью Фокс и Бенджамин МакКензи.
Том Уэллинг, получивший роль Ника, на три недели отставил свой главный рабочий пост — телесериал «Смолвиль».
Спунера могли сыграть Вильмер Вальдеррама, Эрик Кристиан Олсен, Кинан Томпсон, Джон Чо, Доминик Монаган или Джон Хедер. Роль досталась ДеРэю Дэвису.
Главный герой Ник Касл назван в честь актера Ника Касла, который сыграл Майка Майерса в легендарном «Хэллоуине» (1978) Джона Карпентера.
Селма Блэйр сама исполнила все трюки, проведя 12 часов в водном танкере.
Второй оператор Йан Сибрук — постановщик подводных сцен.
Общее
Уникальный идентификатор : 180684028264458129232721553029807815654 (0x87EE7A6187E70A8DB1DD97B5878D3BE6)
Полное имя : The.Fog.2005.Theatrical.Cut.Open.Matte.1080p.WEB-DL.3xRus.Eng.mkv
Формат : Matroska
Версия формата : Version 4 / Version 2
Размер файла : 7,42 Гбайт
Продолжительность : 1 ч. 39 м.
Режим общего битрейта : Переменный
Общий поток : 10,6 Мбит/сек
Название фильма : The.Fog.2005.Theatrical.Cut.Open.Matte.1080p.WEB-DL.3xRus.Eng-spartanec163
Дата кодирования : UTC 2017-10-26 02:31:41
Программа кодирования : mkvmerge v8.3.0 ('Over the Horizon') 64bit
Библиотека кодирования : libebml v1.3.1 + libmatroska v1.4.2

Видео
Идентификатор : 1
Формат : AVC
Формат/Информация : Advanced Video Codec
Профиль формата : High@L4.0
Параметр CABAC формата : Да
Параметр ReFrames формата : 4 кадра
Идентификатор кодека : V_MPEG4/ISO/AVC
Продолжительность : 1 ч. 39 м.
Вид битрейта : Переменный
Битрейт : 8759 Кбит/сек
Максимальный битрейт : 15,0 Мбит/сек
Ширина : 1920 пикселей
Высота : 1080 пикселей
Соотношение сторон : 16:9
Режим частоты кадров : Постоянный
Частота кадров : 23,976 кадра/сек
Цветовое пространство : YUV
Субдискретизация насыщенности : 4:2:0
Битовая глубина : 8 бит
Тип развёртки : Прогрессивная
Бит/(Пиксели*Кадры) : 0.176
Размер потока : 6,11 Гбайт (82%)
Заголовок : WEB-DL 1080p (Amazon)
Язык : English
Default : Да
Forced : Нет
Основные цвета : BT.709
Характеристики трансфера : BT.709
Коэффициенты матрицы : BT.709

Аудио #1
Идентификатор : 2
Формат : AC-3
Формат/Информация : Audio Coding 3
Расширение режима : CM (complete main)
Параметр Endianness формата : Big
Идентификатор кодека : A_AC3
Продолжительность : 1 ч. 39 м.
Вид битрейта : Постоянный
Битрейт : 448 Кбит/сек
Каналы : 6 каналов
Расположение каналов : Front: L C R, Side: L R, LFE
Частота : 48,0 КГц
Битовая глубина : 16 бит
Метод сжатия : С потерями
Размер потока : 320 Мбайт (4%)
Заголовок : AC3 5.1 448Kbps (Дубляж - R5)
Язык : Russian
Default : Да
Forced : Нет

Аудио #2
Идентификатор : 3
Формат : AC-3
Формат/Информация : Audio Coding 3
Расширение режима : CM (complete main)
Параметр Endianness формата : Big
Идентификатор кодека : A_AC3
Продолжительность : 1 ч. 39 м.
Вид битрейта : Постоянный
Битрейт : 192 Кбит/сек
Каналы : 2 канала
Расположение каналов : Front: L R
Частота : 48,0 КГц
Битовая глубина : 16 бит
Метод сжатия : С потерями
Размер потока : 137 Мбайт (2%)
Заголовок : AC3 2.0 192Kbps (Профессиональный, многолосый - 1 канал)
Язык : Russian
Default : Нет
Forced : Нет

Аудио #3
Идентификатор : 4
Формат : AC-3
Формат/Информация : Audio Coding 3
Расширение режима : CM (complete main)
Параметр Endianness формата : Big
Идентификатор кодека : A_AC3
Продолжительность : 1 ч. 39 м.
Вид битрейта : Постоянный
Битрейт : 384 Кбит/сек
Каналы : 6 каналов
Расположение каналов : Front: L C R, Side: L R, LFE
Частота : 48,0 КГц
Битовая глубина : 16 бит
Метод сжатия : С потерями
Размер потока : 274 Мбайт (4%)
Заголовок : AC3 5.1 384Kbps (Профессиональный, двухголосый - Tycoon Studio)
Язык : Russian
Default : Нет
Forced : Нет

Аудио #4
Идентификатор : 5
Формат : E-AC-3
Формат/Информация : Audio Coding 3
Параметр Endianness формата : Big
Идентификатор кодека : A_EAC3
Продолжительность : 1 ч. 39 м.
Вид битрейта : Постоянный
Битрейт : 640 Кбит/сек
Каналы : 6 каналов
Расположение каналов : Front: L C R, Side: L R, LFE
Частота : 48,0 КГц
Метод сжатия : С потерями
Размер потока : 457 Мбайт (6%)
Заголовок : E-AC3 5.1 640Kbps (Оригинал - Amazon)
Язык : English
Default : Нет
Forced : Нет

Текст #1
Идентификатор : 6
Формат : UTF-8
Идентификатор кодека : S_TEXT/UTF8
Идентификатор кодека/Информация : UTF-8 Plain Text
Заголовок : Tycoon Studio
Язык : Russian
Default : Нет
Forced : Нет

Текст #2
Идентификатор : 7
Формат : UTF-8
Идентификатор кодека : S_TEXT/UTF8
Идентификатор кодека/Информация : UTF-8 Plain Text
Заголовок : SDH, Amazon
Язык : English
Default : Нет
Forced : Нет



Скачать Туман.The.Fog.(Руперт.Уэйнрайт).[2005.ужасы.WEB-DL].[1080p].[Open.Matte].[Dub]+[MVO]+[DVO]+[Eng]+[Sub.Rus.Eng]x2.torrent без регистрации
Золото ЗОЛОТАЯ РАЗДАЧА! СКАЧАННОЕ НЕ ЗАСЧИТЫВАЕТСЯ! Золото
Дата: Зарегистрирован   [ Тип: внутренний ] Как тут cкачать?
MAGNET ссылка
MAGNET ссылка


Скачать .torrent

38 KB

Статус: проверено DHT
Скачан: торрент - 20 раз, раздача полностью - 142 раз
Размер: 7,42 GB
Оценка:  - (Голосов: 0)
Поблагодарили: 0
Поделиться ссылкой на эту раздачу с друзьями:
В контактеFacebookОдноклассникиTwitterLivejournalМой МирLiveinternet
 

 
Показать сообщения:    


Вы не можете начинать темы
Вы не можете отвечать на сообщения
Вы не можете редактировать свои сообщения
Вы не можете удалять свои сообщения
Вы не можете голосовать в опросах
Вы не можете прикреплять файлы к сообщениям
Вы можете скачивать файлы