Loading...
Error

Скачать Ичи / Ichi (Фумихико Сори) [2008, боевик, триллер, драма, криминал, BDRip] [1080p] [DVO]+[Sub Rus, Eng] торрент без регистрации

Статистика раздачи
Размер:  11,64 GB   |    Скачан:  24 раза
Сидов:  1  [  0 KB/s  ]  
 
 
 
Автор Сообщение

Marsianka

[] 

Информация о фильме
Название: Ичи
Оригинальное название: Ichi
Год выпуска: 2008
Жанр: боевик, триллер, драма, криминал
Выпущено: Япония, Asahi Shimbun Newspaper, The Dentsu, Geneon Entertainment
Режиссер: Фумихико Сори
В ролях: Харука Аясе, Сидо Накамура, Такао Осава, Казума Чиба, Акира Эмото, Есуке Кубодзука, Го Ридзю, Маюми Сада, Тецуо Йамашита, Аюму Сайто, Тору Тезука, Кумико Цучия, Широ Намики, Тэтта Сугимото, Мегуми Ёкояма, Эрико Ватанабэ, Йошиюки Ямагути, Юто Накано, Сойчиро Масумото, Мицуки Кога, Рюки Китаока, Хироки Мацуката, Тодд Хаберкорн, Рики Такэути

О фильме: Слепая певица Ичи путешествует по стране в поисках учителя, слепого массажиста, который в детстве обучал её владению мечом. По дороге к ней прибивается самурай Тома, который пытается спасти Ичи от бандитов, но в результате его самого приходится спасать. Деревню, в которой они останавливаются, терроризирует банда под началом безжалостного Банки, и, сама того не желая, Ичи оказывается втянута в смертоносную битву между добром и злом.



Продолжительность: 01:59:09
Перевод: Профессиональный двухголосый
Субтитры: Русские, английские

Файл
Качество: BDRip (1080p)
Видео: MPEG-4 AVC, 13.2 Мбит/с, 1912x1038

Сэмпл
Аудио#1: Русский (AC3, 6 ch, 448 Кбит/с)
Аудио#2: Японский (AC3, 6 ch, 384 Кбит/с)
Формат : Matroska
Версия формата : Version 2
Размер файла : 11,6 Гбайт
Продолжительность : 1 ч. 59 м.
Общий поток : 14,0 Мбит/сек
Название фильма : ~V ad~
Дата кодирования : UTC 2017-10-30 13:09:05
Программа кодирования : mkvmerge v6.5.0 ('Isn't she lovely') built on Oct 20 2013 12:50:05
Библиотека кодирования : libebml v1.3.0 + libmatroska v1.4.1
Обложка : Yes
Attachments : cover.jpg

Видео
Идентификатор : 1
Формат : AVC
Формат/Информация : Advanced Video Codec
Профиль формата : High@L4.1
Настройки формата : CABAC / 4 Ref Frames
Параметр CABAC формата : Да
Параметр RefFrames формата : 4 кадра
Идентификатор кодека : V_MPEG4/ISO/AVC
Продолжительность : 1 ч. 59 м.
Битрейт : 13,2 Мбит/сек
Ширина : 1912 пикселей
Высота : 1038 пикселей
Соотношение сторон : 1,85:1
Режим частоты кадров : Постоянный
Частота кадров : 23,976 (24000/1001) кадра/сек
Цветовое пространство : YUV
Субдискретизация насыщенности : 4:2:0
Битовая глубина : 8 бит
Тип развёртки : Прогрессивная
Бит/(Пиксели*Кадры) : 0.277
Размер потока : 10,7 Гбайт (92%)
Заголовок : ~V~
Библиотека кодирования : x264 core 152 r2851 ba24899
Настройки программы : cabac=1 / ref=4 / deblock=1:-3:-3 / analyse=0x3:0x133 / me=umh / subme=11 / psy=1 / psy_rd=1.00:0.00 / mixed_ref=1 / me_range=32 / chroma_me=1 / trellis=2 / 8x8dct=1 / cqm=0 / deadzone=21,11 / fast_pskip=0 / chroma_qp_offset=-2 / threads=12 / lookahead_threads=1 / sliced_threads=0 / nr=0 / decimate=0 / interlaced=0 / bluray_compat=0 / constrained_intra=0 / bframes=9 / b_pyramid=2 / b_adapt=2 / b_bias=0 / direct=3 / weightb=1 / open_gop=0 / weightp=2 / keyint=240 / keyint_min=23 / scenecut=40 / intra_refresh=0 / rc=2pass / mbtree=0 / bitrate=13160 / ratetol=1.0 / qcomp=0.76 / qpmin=0 / qpmax=69 / qpstep=4 / cplxblur=20.0 / qblur=0.5 / ip_ratio=1.30 / pb_ratio=1.30 / aq=3:0.80
Язык : English
Default : Да
Forced : Нет

Аудио #1
Идентификатор : 2
Формат : AC-3
Формат/Информация : Audio Coding 3
Параметр Endianness формата : Big
Идентификатор кодека : A_AC3
Продолжительность : 1 ч. 59 м.
Вид битрейта : Постоянный
Битрейт : 448 Кбит/сек
Каналы : 6 каналов
Расположение каналов : Front: L C R, Side: L R, LFE
Частота : 48,0 КГц
Частота кадров : 31,250 кадров/сек (1536 SPF)
Битовая глубина : 16 бит
Метод сжатия : С потерями
Размер потока : 382 Мбайт (3%)
Заголовок : DVO
Язык : Russian
Default : Да
Forced : Нет

Аудио #2
Идентификатор : 3
Формат : AC-3
Формат/Информация : Audio Coding 3
Параметр Endianness формата : Big
Идентификатор кодека : A_AC3
Продолжительность : 1 ч. 59 м.
Вид битрейта : Постоянный
Битрейт : 384 Кбит/сек
Каналы : 6 каналов
Расположение каналов : Front: L C R, Side: L R, LFE
Частота : 48,0 КГц
Частота кадров : 31,250 кадров/сек (1536 SPF)
Битовая глубина : 16 бит
Метод сжатия : С потерями
Размер потока : 327 Мбайт (3%)
Язык : Japanese
Default : Нет
Forced : Нет

Текст #1
Идентификатор : 4
Формат : UTF-8
Идентификатор кодека : S_TEXT/UTF8
Идентификатор кодека/Информация : UTF-8 Plain Text
Заголовок : Forced
Язык : Russian
Default : Да
Forced : Нет

Текст #2
Идентификатор : 5
Формат : UTF-8
Идентификатор кодека : S_TEXT/UTF8
Идентификатор кодека/Информация : UTF-8 Plain Text
Заголовок : Full
Язык : Russian
Default : Нет
Forced : Нет

Текст #3
Идентификатор : 6
Формат : UTF-8
Идентификатор кодека : S_TEXT/UTF8
Идентификатор кодека/Информация : UTF-8 Plain Text
Заголовок : Forced
Язык : English
Default : Нет
Forced : Нет

Текст #4
Идентификатор : 7
Формат : UTF-8
Идентификатор кодека : S_TEXT/UTF8
Идентификатор кодека/Информация : UTF-8 Plain Text
Заголовок : Full
Язык : English
Default : Нет
Forced : Нет

Меню
00:00:00.000 : en:Chapter 1
00:03:36.216 : en:Chapter 2
00:05:10.309 : en:Chapter 3
00:09:58.972 : en:Chapter 4
00:15:47.738 : en:Chapter 5
00:20:52.250 : en:Chapter 6
00:29:06.619 : en:Chapter 7
00:36:00.032 : en:Chapter 8
00:41:49.590 : en:Chapter 9
00:49:50.529 : en:Chapter 10
00:55:11.056 : en:Chapter 11
00:58:53.112 : en:Chapter 12
01:05:08.946 : en:Chapter 13
01:12:07.323 : en:Chapter 14
01:15:54.383 : en:Chapter 15
01:21:23.878 : en:Chapter 16
01:28:41.024 : en:Chapter 17
01:36:05.760 : en:Chapter 18
01:40:58.969 : en:Chapter 19
01:49:53.712 : en:Chapter 20
01:54:58.891 : en:Chapter 21
x264 [info]: frame I:983 Avg QP:15.88 size:246471
x264 [info]: frame P:32735 Avg QP:17.66 size:117477
x264 [info]: frame B:137689 Avg QP:19.76 size: 55679
Релиз от:



Скачать Ичи.Ichi.(Фумихико.Сори).[2008.боевик.триллер.драма.криминал.BDRip].[1080p].[DVO]+[Sub.Rus.Eng].torrent без регистрации
Золото ЗОЛОТАЯ РАЗДАЧА! СКАЧАННОЕ НЕ ЗАСЧИТЫВАЕТСЯ! Золото
Дата: Зарегистрирован   [ Тип: внутренний ] Как тут cкачать?
MAGNET ссылка
MAGNET ссылка


Скачать .torrent

31 KB

Статус: проверено DHT
Скачан: торрент - 24 раз, раздача полностью - 5 раз
Размер: 11,64 GB
Оценка:  - (Голосов: 0)
Поблагодарили: 0
Поделиться ссылкой на эту раздачу с друзьями:
В контактеFacebookОдноклассникиTwitterLivejournalМой МирLiveinternet
 

 
Показать сообщения:    


Вы не можете начинать темы
Вы не можете отвечать на сообщения
Вы не можете редактировать свои сообщения
Вы не можете удалять свои сообщения
Вы не можете голосовать в опросах
Вы не можете прикреплять файлы к сообщениям
Вы можете скачивать файлы