Loading...
Error

Скачать Вавилон-Берлин / Babylon Berlin (Сезон 01) (Том Тыквер, Хендрик Хандлёгтен, Ахим фон Боррис) [2017, Драма, криминал, HDTV] [1080p] [MVO] (SDI Media) + [Original] торрент без регистрации

Статистика раздачи
Размер:  18,09 GB   |    Скачан:  27 раз
Сидов:  1  [  0 KB/s  ]  
 
 
 
Автор Сообщение

leon030982

[] 

Вавилон-Берлин / Babylon Berlin


Год выпуска: 2017
Страна: Германия
Жанр: Драма, криминал
Продолжительность: ~ 00:45:00
Перевод: Профессиональный (многоголосый закадровый) SDI Media по заказу Viasat

Режиссёр: Том Тыквер, Хендрик Хандлёгтен, Ахим фон Боррис

В ролях: Леони Бенеш, Фолькер Брух, Лив Лиза Фрис, Валера Канищев, Дмитрий Александров, Денис Бургазлиев, Олег Тихомиров, Антон, фон Люк, Роланд Вольф, Питер Шнайдер

Описание: Действие происходит в Германии в конце 1920-х — начале 1930-х годов, до прихода к власти нацистов. Комиссар полиции Гереон Рат занимается раскрытием различных преступлений в Берлине — от убийств до торговли наркотиками. Главный герой видит, как стремительно меняется общество, и на первый план выходят такие явления, как эмансипация и экстремизм…



Качество: HDTV 1080p
Контейнер: MKV
Видео: H.264, 1920x1080 (16:9), 25.000 fps, 7500 Kbps
Аудио 1: AC3, 48 kHz, 2ch, 192 kbps - Rus
Аудио 2: AC3, 48 kHz, 6 ch, 384 kbps - Ger
Субтитры: Отсутствуют
Khoren2013

Озвучивание: SDI Media по заказу Viasat
General
Unique ID : 212634801721829863196269518786383459206 (0x9FF7F922AF32CF5B9AE898802D9E3386)
Complete name : E:\Torrent\Babylon.Berlin.S01.1080p.HDTV.H.264-SDI\Babylon.Berlin.S01E01E02.1080p.HDTV.H.264-SDI.mkv
Format : Matroska
Format version : Version 4 / Version 2
File size : 4.75 GiB
Duration : 1 h 27 min
Overall bit rate : 7 787 kb/s
Encoded date : UTC 2017-10-18 10:52:50
Writing application : mkvmerge v16.0.0 ('Protest') 64-bit
Writing library : libebml v1.3.5 + libmatroska v1.4.8

Video
ID : 1
Format : AVC
Format/Info : Advanced Video Codec
Format profile : High@L4
Format settings : CABAC / 4 Ref Frames
Format settings, CABAC : Yes
Format settings, RefFrames : 4 frames
Format settings, GOP : M=8, N=24
Codec ID : V_MPEG4/ISO/AVC
Duration : 1 h 27 min
Bit rate : 7 208 kb/s
Width : 1 920 pixels
Height : 1 080 pixels
Display aspect ratio : 16:9
Frame rate mode : Constant
Frame rate : 25.000 FPS
Standard : Component
Color space : YUV
Chroma subsampling : 4:2:0
Bit depth : 8 bits
Scan type : MBAFF
Scan type, store method : Interleaved fields
Scan order : Top Field First
Bits/(Pixel*Frame) : 0.139
Stream size : 4.40 GiB (93%)
Language : German
Default : Yes
Forced : No
Color range : Limited
Color primaries : BT.709
Transfer characteristics : BT.709
Matrix coefficients : BT.709

Audio #1
ID : 2
Format : AC-3
Format/Info : Audio Coding 3
Format settings, Endianness : Big
Codec ID : A_AC3
Duration : 1 h 27 min
Bit rate mode : Constant
Bit rate : 192 kb/s
Channel(s) : 2 channels
Channel positions : Front: L R
Sampling rate : 48.0 kHz
Frame rate : 31.250 FPS (1536 SPF)
Bit depth : 16 bits
Compression mode : Lossy
Stream size : 120 MiB (2%)
Language : Russian
Service kind : Complete Main
Default : Yes
Forced : No

Audio #2
ID : 3
Format : AC-3
Format/Info : Audio Coding 3
Format settings, Endianness : Big
Codec ID : A_AC3
Duration : 1 h 27 min
Bit rate mode : Constant
Bit rate : 384 kb/s
Channel(s) : 6 channels
Channel positions : Front: L C R, Side: L R, LFE
Sampling rate : 48.0 kHz
Frame rate : 31.250 FPS (1536 SPF)
Bit depth : 16 bits
Compression mode : Lossy
Stream size : 240 MiB (5%)
Language : German
Service kind : Complete Main
Default : No
Forced : No
Когда раздача ведётся путём добавления новых серий, при каждом добавлении создётся новый торрент. Чтобы начать докачку новой серии, пользователям необходимо сделать следующее:
(1) остановить скачивание,
(2) удалить старый торрент у себя из клиента (старые серии удалять не надо),
(3) скачать новый торрент и запустить его у себя в клиенте вместо старого, при этом указать клиенту путь в старую папку, куда и должно происходить скачивание новых серий.
Ваш клиент при этом должен произвести хеширование (проверку) старой папки (если не производит сам - помогите ему сделать это), и будет докачивать только те серии, которых у вас ещё нет. Старые серии при этом не удаляются, а продолжают раздаваться!
Eсли вы уже удалили старые серии, то предотвратить повторную закачку старых серий можно, отжав галочку в соответсвующих местах при запуске нового торрента. По возможности, желательно не удалять старые серии как можно дольше, чтобы релизёр не столько продолжал раздавать старые серии, а смог сконцентрироваться на новых.



Скачать Вавилон-Берлин.Babylon.Berlin.(Сезон.01).(Том.Тыквер.Хендрик.Хандлёгтен.Ахим.фон.Боррис).[2017.Драма.криминал.HDTV].[1080p].[MVO].(SDI.Media).+.[Original].torrent без регистрации
Золото ЗОЛОТАЯ РАЗДАЧА! СКАЧАННОЕ НЕ ЗАСЧИТЫВАЕТСЯ! Золото
Дата: Зарегистрирован   [ Тип: внутренний ] Как тут cкачать?
MAGNET ссылка
MAGNET ссылка


Скачать .torrent

46 KB

Статус: проверено DHT
Скачан: торрент - 27 раз, раздача полностью - 9 раз
Размер: 18,09 GB
Оценка:  - (Голосов: 0)
Поблагодарили: 0
Поделиться ссылкой на эту раздачу с друзьями:
В контактеFacebookОдноклассникиTwitterLivejournalМой МирLiveinternet
 

 
Показать сообщения:    


Вы не можете начинать темы
Вы не можете отвечать на сообщения
Вы не можете редактировать свои сообщения
Вы не можете удалять свои сообщения
Вы не можете голосовать в опросах
Вы не можете прикреплять файлы к сообщениям
Вы можете скачивать файлы