Loading...
Error

Скачать Звёздный путь: Дискавери / Star Trek: Discovery (сезон 01) (Акива Голдсман и др.) [2017, фантастика, WEBRip] [720p] [MVO (OmskBird)] торрент без регистрации

Статистика раздачи
Размер:  14,93 GB   |    Скачан:  25 раз

Полного источника не было: 24 минуты

 
 
 
Автор Сообщение

МихаНЕзатор

[] 

Информация о фильме
Название: Звёздный путь: Дискавери
Оригинальное название: Star Trek: Discovery
Год выхода: 2017
Жанр: Фантастика
Режиссер: Брайан Фуллер

В ролях: Джейсон Айзекс, Даг Джонс, Шазад Латиф, Сонекуа Мартин-Грин, Молик Панчоли, Энтони Рэпп, Мишель Йео, Кеннет Митчелл, Дэймон Рунян и другие.

О фильме: За 10 лет до начала истории, описанной в оригинальном сериале «Звёздный путь», экипаж корабля USS Discovery NCC-1031 отправляется в путешествие, чтобы изучать глубокий космос и открыть новые миры и цивилизации.



Релиз от: OmskBird

Страна: США
Продолжительность: ~00:44:00 серия
Перевод: Любительский (многоголосый закадровый) OmskBird
Субтитры: отсутствуют
Реклама: присутствуют аудио вставки рекламы

Файл
Кодек: MPEG-4 AVC/H.264
Качество: WEBRip 720p
Видео: 1280x720 (1.778),~2900 Кбит/сек, 23.976 кадр/сек
Звук:
Аудио rus: AC-3, 2 ch, 48,0 КГц, 192Кбит/сек - OmskBird

АНОНСЫ ПОПУЛЯРНЫХ РАЗДАЧ


Торрент обновлён, добавлена 15-я серия!

Релиз-группа: OmskBird
Перевод: Николай Исаков
Роли озвучивали: Ольга Федорова, Александр Дасевич, Семён Ващенко, Павел Ярощик
Звукорежиссер: Павел Квентов
Постер: Ксения Просветова

Раздача с рекламными вставками

General
Complete name : G:FilmsStar.Trek.Discovery.S01.720p.WEB-DLRip.OmskBirdStar.Trek.Discovery.S01E01.720p.WEBRip.OmskBird.mp4
Format : MPEG-4
Format profile : Base Media
Codec ID : isom (isom)
File size : 974 MiB
Duration : 43mn 28s
Overall bit rate : 3 133 Kbps
Encoded date : UTC 2017-09-26 03:52:24
Tagged date : UTC 2017-09-26 03:52:24
Writing application : Yamb 2.1.0.0 [http://yamb.unite-video.com]

Video
ID : 1
Format : AVC
Format/Info : Advanced Video Codec
Format profile : Main@L3.2
Format settings, CABAC : Yes
Format settings, ReFrames : 3 frames
Codec ID : avc1
Codec ID/Info : Advanced Video Coding
Duration : 43mn 28s
Bit rate : 2 939 Kbps
Maximum bit rate : 6 420 Kbps
Width : 1 280 pixels
Height : 720 pixels
Display aspect ratio : 16:9
Frame rate mode : Constant
Frame rate : 23.976 (24000/1001) fps
Standard : PAL
Color space : YUV
Chroma subsampling : 4:2:0
Bit depth : 8 bits
Scan type : Progressive
Bits/(Pixel*Frame) : 0.133
Stream size : 914 MiB (94%)
Language : English
Encoded date : UTC 2017-09-25 05:51:20
Tagged date : UTC 2017-09-26 03:52:40
Color range : Limited
Color primaries : BT.709
Transfer characteristics : BT.709
Matrix coefficients : BT.709

Audio
ID : 2
Format : AC-3
Format/Info : Audio Coding 3
Mode extension : CM (complete main)
Format settings, Endianness : Big
Codec ID : ac-3
Duration : 43mn 28s
Bit rate mode : Constant
Bit rate : 192 Kbps
Channel(s) : 2 channels
Channel positions : Front: L R
Sampling rate : 48.0 KHz
Frame rate : 31.250 fps (1536 spf)
Bit depth : 16 bits
Compression mode : Lossy
Stream size : 59.7 MiB (6%)
Encoded date : UTC 2017-09-26 03:52:39
Tagged date : UTC 2017-09-26 03:52:40

Внимание! Раздача ведётся путём добавления новых серий; при каждом добавлении создётся новый торрент. Чтобы начать докачку новой серии, пользователям необходимо сделать следующее:
Остановить скачивание.
Удалить старый торрент у себя из клиента (старые серии удалять не надо).
Скачать новый торрент и запустить его у себя в клиенте вместо старого, при этом указать клиенту путь в старую папку куда и должно происходить скачивание новых серий.
Ваш клиент при этом должен произвести хеширование (проверку) старой папки (если не производит сам - помогите ему сделать это), и будет докачивать только те серии которых у вас ещё нет. Старые серии при этом не удаляются, а продолжают раздаваться!
Eсли вы уже удалили старые серии, то предотвратить повторную закачку старых серий можно, отжав галочку в соответсвующих местах при запуске нового торрента. По возможности, желательно не удалять старые серии как можно дольше чтобы релизёр не столько продолжал раздавать старые серии, а смог сконцентрироваться на новых.



Скачать Звёздный.путь.Дискавери.Star.Trek.Discovery.(сезон.01).(Акива.Голдсман.и.др.).[2017.фантастика.WEBRip].[720p].[MVO.(OmskBird)].torrent без регистрации
Золото ЗОЛОТАЯ РАЗДАЧА! СКАЧАННОЕ НЕ ЗАСЧИТЫВАЕТСЯ! Золото
Дата: Зарегистрирован   [ Тип: внутренний ] Как тут cкачать?
MAGNET ссылка
MAGNET ссылка


Скачать .torrent

40 KB

Статус: проверено DHT
Скачан: торрент - 25 раз, раздача полностью - 0 раз
Размер: 14,93 GB
Оценка:  - (Голосов: 0)
Поблагодарили: 0
Поделиться ссылкой на эту раздачу с друзьями:
В контактеFacebookОдноклассникиTwitterLivejournalМой МирLiveinternet
 

 
Показать сообщения:    


Вы не можете начинать темы
Вы не можете отвечать на сообщения
Вы не можете редактировать свои сообщения
Вы не можете удалять свои сообщения
Вы не можете голосовать в опросах
Вы не можете прикреплять файлы к сообщениям
Вы можете скачивать файлы