Loading...
Error

Скачать Пила 8 / Jigsaw (Майкл Спириг, Питер Спириг) [2017, ужасы, триллер, криминал, детектив, BDRip] [1080p] 2x[DUB] [Лицензия / iTunes] торрент без регистрации

Статистика раздачи
Размер:  6,92 GB   |    Скачан:  308 раз
Сидов:  6  [  19 KB/s  ]  
 
 
 
Автор Сообщение

leon030982

[] 

Пила 8 / Jigsaw




Год выхода : 2017
Жанр : ужасы, триллер, криминал, детектив
Страна : США
Продолжительность : 01:31:57
Перевод 1: Дубляж [Лицензия / iTunes]
Перевод 2: Украинский (дублированный) [Лицензия / iTunes]

Режиссер : Майкл Спириг, Питер Спириг

В главных ролях: Мэтт Пассмор, Тобин Белл, Каллум Кит Ренни, Ханна Андерсон, Кле Беннетт, Лора Вандервурт, Пол Браунштейн, Мандела Ван Пиблз, Бриттани Аллен, Джозиа Блэк

Описание: В городе обнаруживают несколько тел, обладатели которых встретили определенно не лучший конец. Все улики указывают на одного человека: Джона Крамера. Но как это возможно? Человек, известный как Пила, мертв уже более десяти лет. Неужели все-таки нашелся тот, кто рискнул подобрать мантию жестокого маньяка?

[url=] [/url]

Файл
Качество : BDRip 1080p
Формат видео : MKV
Видео : MPEG-4 AVC, 9570 Кбит/с, 1920x808, 23.976 кадр/сек
Звук : AC3, 48.0 KHz, 6 ch, ~384 Kbps - RUS
Звук : AC3, 48.0 KHz, 2 ch, ~192 Kbps - UKR
Звук : AC3, 48.0 KHz, 6 ch, ~640 Kbps - ENG

Субтитры : Английские

Торент обновлен! [Лицензия / iTunes]
General
Unique ID : 328821588245922611593172190632819402141 (0xF760BBFC2881B5F4332CB79DD75DA59D)
Complete name : F:\Jigsaw.2017.BDRip.1080p.NNMClub.mkv
Format : Matroska
Format version : Version 4 / Version 2
File size : 6.92 GiB
Duration : 1 h 32 min
Overall bit rate : 10.7 Mb/s
Encoded date : UTC 2018-01-16 07:35:58
Writing application : mkvmerge v20.0.0 ('I Am The Sun') 64-bit
Writing library : libebml v1.3.5 + libmatroska v1.4.8

Video
ID : 1
Format : AVC
Format/Info : Advanced Video Codec
Format profile : High@L4.1
Format settings : CABAC / 5 Ref Frames
Format settings, CABAC : Yes
Format settings, RefFrames : 5 frames
Codec ID : V_MPEG4/ISO/AVC
Duration : 1 h 32 min
Bit rate : 9 570 kb/s
Width : 1 920 pixels
Height : 808 pixels
Display aspect ratio : 2.40:1
Frame rate mode : Constant
Frame rate : 23.976 FPS
Color space : YUV
Chroma subsampling : 4:2:0
Bit depth : 8 bits
Scan type : Progressive
Bits/(Pixel*Frame) : 0.257
Stream size : 6.00 GiB (87%)
Writing library : x264 core 152 r2851 ba24899
Encoding settings : cabac=1 / ref=5 / deblock=1:0:0 / analyse=0x3:0x133 / me=umh / subme=7 / psy=1 / psy_rd=1.00:0.00 / mixed_ref=1 / me_range=16 / chroma_me=1 / trellis=1 / 8x8dct=1 / cqm=0 / deadzone=21,11 / fast_pskip=0 / chroma_qp_offset=-2 / threads=25 / lookahead_threads=4 / sliced_threads=0 / nr=0 / decimate=1 / interlaced=0 / bluray_compat=0 / constrained_intra=0 / bframes=3 / b_pyramid=2 / b_adapt=1 / b_bias=0 / direct=1 / weightb=1 / open_gop=0 / weightp=2 / keyint=250 / keyint_min=23 / scenecut=40 / intra_refresh=0 / rc_lookahead=40 / rc=2pass / mbtree=1 / bitrate=9570 / ratetol=1.0 / qcomp=0.60 / qpmin=0 / qpmax=69 / qpstep=4 / cplxblur=20.0 / qblur=0.5 / ip_ratio=1.40 / aq=1:1.00
Language : English
Default : Yes
Forced : No

Audio #1
ID : 2
Format : AC-3
Format/Info : Audio Coding 3
Format settings, Endianness : Big
Codec ID : A_AC3
Duration : 1 h 32 min
Bit rate mode : Constant
Bit rate : 384 kb/s
Channel(s) : 6 channels
Channel positions : Front: L C R, Side: L R, LFE
Sampling rate : 48.0 kHz
Frame rate : 31.250 FPS (1536 SPF)
Bit depth : 16 bits
Compression mode : Lossy
Stream size : 253 MiB (4%)
Title : DUB-iTunes
Language : Russian
Service kind : Complete Main
Default : Yes
Forced : No

Audio #2
ID : 3
Format : AC-3
Format/Info : Audio Coding 3
Format settings, Endianness : Big
Codec ID : A_AC3
Duration : 1 h 32 min
Bit rate mode : Constant
Bit rate : 192 kb/s
Channel(s) : 2 channels
Channel positions : Front: L R
Sampling rate : 48.0 kHz
Frame rate : 31.250 FPS (1536 SPF)
Bit depth : 16 bits
Compression mode : Lossy
Stream size : 127 MiB (2%)
Title : DUB-iTunes
Language : Ukrainian
Service kind : Complete Main
Default : No
Forced : No

Audio #3
ID : 4
Format : AC-3
Format/Info : Audio Coding 3
Format settings, Endianness : Big
Codec ID : A_AC3
Duration : 1 h 32 min
Bit rate mode : Constant
Bit rate : 640 kb/s
Channel(s) : 6 channels
Channel positions : Front: L C R, Side: L R, LFE
Sampling rate : 48.0 kHz
Frame rate : 31.250 FPS (1536 SPF)
Bit depth : 16 bits
Compression mode : Lossy
Stream size : 422 MiB (6%)
Language : English
Service kind : Complete Main
Default : No
Forced : No

Text
ID : 5
Format : UTF-8
Codec ID : S_TEXT/UTF8
Codec ID/Info : UTF-8 Plain Text
Language : English
Default : No
Forced : No

Menu
00:00:00.000 : en:00:00:00.000
00:03:46.977 : en:00:03:46.977
00:10:39.848 : en:00:10:39.848
00:14:09.974 : en:00:14:09.974
00:22:39.608 : en:00:22:39.608
00:29:03.408 : en:00:29:03.408
00:35:18.533 : en:00:35:18.533
00:40:38.519 : en:00:40:38.519
00:43:09.212 : en:00:43:09.212
00:46:12.353 : en:00:46:12.353
00:52:00.743 : en:00:52:00.743
00:56:34.224 : en:00:56:34.224
01:04:13.850 : en:01:04:13.850
01:09:17.570 : en:01:09:17.570
01:13:33.284 : en:01:13:33.284
01:23:31.089 : en:01:23:31.089



Скачать Пила.8.Jigsaw.(Майкл.Спириг.Питер.Спириг).[2017.ужасы.триллер.криминал.детектив.BDRip].[1080p].2x[DUB].[Лицензия.iTunes].torrent без регистрации
Золото ЗОЛОТАЯ РАЗДАЧА! СКАЧАННОЕ НЕ ЗАСЧИТЫВАЕТСЯ! Золото
Дата: Зарегистрирован   [ Тип: внутренний ] Как тут cкачать?
MAGNET ссылка
MAGNET ссылка


Скачать .torrent

35 KB

Статус: проверено DHT
Скачан: торрент - 308 раз, раздача полностью - 113 раз
Размер: 6,92 GB
Оценка:  5 (Голосов: 1)
Поблагодарили: 8
Поделиться ссылкой на эту раздачу с друзьями:
В контактеFacebookОдноклассникиTwitterLivejournalМой МирLiveinternet
 

 

igor5930

[] 

Фильм интересный или сюжет уже вообще потерялся?
 

Sutsuko

[] 

igor5930 писал(а):

Фильм интересный или сюжет уже вообще потерялся?
8 часть, как и все остальные является так называемой "частью большого пазла". Он отвечает на вопросы, возникшие после просмотра предыдущих частей...
 
Показать сообщения:    


Вы не можете начинать темы
Вы не можете отвечать на сообщения
Вы не можете редактировать свои сообщения
Вы не можете удалять свои сообщения
Вы не можете голосовать в опросах
Вы не можете прикреплять файлы к сообщениям
Вы можете скачивать файлы