Loading...
Error

Скачать Доказательство жизни / Proof of Life (Тейлор Хэкфорд) [2000, боевик, триллер, драма, WEB-DL] [1080p] [Open Matte] [Dub]+[MVO]x2+[AVO]x2+[Оригинал Eng]+[Commentary Eng]+[Sub Rus, Eng]x2 торрент без регистрации

Статистика раздачи
Размер:  11,63 GB   |    Скачан:  17 раз
Сидов:  1  [  0 KB/s  ]  
 
 
 
Автор Сообщение

Marsianka

[] 

Информация о фильме
Название: Доказательство жизни
Оригинальное название: Proof of Life
Год выпуска: 2000
Жанр: боевик, триллер, драма
Выпущено: США, Anvil Films, Bel Air Entertainment
Продолжительность: 02:15:22
Перевод: Дублированный, профессиональный многоголосый, авторский одноголосый
Режиссер: Тейлор Хэкфорд
В ролях: Мег Райан, Расселл Кроу, Дэвид Морс, Памела Рид, Дэвид Карузо, Энтони Хилд, Стенли Андерсон, Готтфрид Йон, Алан Армстронг, Майкл Кичен, Марго Мартиндейл, Марио Эрнесто Санчез, Пьетро Сибилье, Вики Эрнандес, Норма Мартинез, Диего Тружильо, Аристотелес Пичо, Сарахи Эчеверриа, Карлос Бланчард, Рауль Родригез, Мауро Куева, Алехандро Кордова, Сандро Беллидо, Мигель Айза, Роберто Фрисон, Тони Васкез, Клаудия Даммерт, Роуэна Кинг, Майкл Бирн, Джейм Севайос, Джилберто Торрес, Дмитрий Шевченко
О фильме:
Терри Торн сумел выкупить заложника Пьера Ленуа на территории Чечни, утерев нос федералам, которые настаивали на том, чтобы самостоятельно осуществить выкуп. Терри — парень не простой; владеет всеми видами оружия, знает несколько языков, является хорошим переговорщиком и психологом. Он занимается освобождением заложников, если есть «доказательство жизни». А застраховать свою жизнь в странах с «горячими точками» стоит дорого. Еще больше выплачивается страховой компанией лицу, указанному в страховом полисе получателем. Продемонстрировав, как ловко Терри действовал в Чечне, авторы фильма переносят место действия в Южную Америку. Там захватом заложников и грабежами занимаются повстанцы. И для очередного освобождения заложников правительство обращается за помощью к Терри.


Файл
Качество: WEB-DL 1080p
Видео: MPEG-4 AVC, 10200 кбит/с, 1920x1080, 23.976 кадр/с
Аудио 1: Russian: 48 kHz, AC3, 6 ch, 384 kbps |Дублированный|
Аудио 2: Russian: 48 kHz, AC3, 2 ch, 192 kbps |MVO, ТНТ|
Аудио 3: Russian: 48 kHz, AC3, 2 ch, 192 kbps |MVO, ТВ3|
Аудио 4: Russian: 48 kHz, AC3, 6 ch, 384 kbps |AVO, С. Визгунов|
Аудио 5: Russian: 48 kHz, AC3, 6 ch, 384 kbps |AVO, Ю. Живов|
Аудио 6: English: 48 kHz, АС3, 6 ch, 384 kbps |Оригинал|
Аудио 7: English: 48 kHz, AC3, 2 ch, 192 kbps |Commentary|
Субтитры: Русские, английские
Навигация по главам: есть

Релиз от:
• Исходник видео WEB-DL Amazon
• Open Matte версия фильма, имеет большее наполнение кадра, по сравнению с HDTV
Общее
Уникальный идентификатор : 185004470524064118348055625913117227469 (0x8B2E90A16697E90A8B05F7C1F158B9CD)
Полное имя : Proof of Life 2000.WEB-DL.1080p.Open. Matte.mkv
Формат : Matroska
Версия формата : Version 4 / Version 2
Размер файла : 11,6 Гбайт
Продолжительность : 2 ч. 15 м.
Режим общего битрейта : Переменный
Общий поток : 12,3 Мбит/сек
Дата кодирования : UTC 2017-10-21 10:13:40
Программа кодирования : mkvmerge v17.0.0 ('Be Ur Friend') 64-bit
Библиотека кодирования : libebml v1.3.5 + libmatroska v1.4.8

Видео
Идентификатор : 1
Формат : AVC
Формат/Информация : Advanced Video Codec
Профиль формата : High@L4
Параметр CABAC формата : Да
Параметр RefFrames формата : 4 кадра
Идентификатор кодека : V_MPEG4/ISO/AVC
Продолжительность : 2 ч. 15 м.
Вид битрейта : Переменный
Битрейт : 10,2 Мбит/сек
Максимальный битрейт : 15,0 Мбит/сек
Ширина : 1920 пикселей
Высота : 1080 пикселей
Соотношение сторон : 16:9
Режим частоты кадров : Постоянный
Частота кадров : 23,976 (24000/1001) кадра/сек
Цветовое пространство : YUV
Субдискретизация насыщенности : 4:2:0
Битовая глубина : 8 бит
Тип развёртки : Прогрессивная
Бит/(Пиксели*Кадры) : 0.205
Размер потока : 9,63 Гбайт (83%)
Библиотека кодирования : x264 core 148 r2623 d5b2374
Настройки программы : cabac=1 / ref=4 / deblock=1:-1:-1 / analyse=0x3:0x133 / me=umh / subme=9 / psy=1 / psy_rd=1.00:0.15 / mixed_ref=1 / me_range=24 / chroma_me=1 / trellis=2 / 8x8dct=1 / cqm=0 / deadzone=21,11 / fast_pskip=1 / chroma_qp_offset=-3 / threads=34 / lookahead_threads=5 / sliced_threads=0 / nr=150 / decimate=1 / interlaced=0 / bluray_compat=0 / constrained_intra=0 / bframes=8 / b_pyramid=2 / b_adapt=2 / b_bias=0 / direct=3 / weightb=1 / open_gop=0 / weightp=2 / keyint=120 / keyint_min=61 / scenecut=0 / intra_refresh=0 / rc_lookahead=120 / rc=crf / mbtree=1 / crf=18.0 / qcomp=0.60 / qpmin=0 / qpmax=69 / qpstep=4 / vbv_maxrate=15000 / vbv_bufsize=31250 / crf_max=0.0 / nal_hrd=vbr / filler=0 / ip_ratio=1.40 / aq=3:1.00
Default : Да
Forced : Нет
Цветовой диапазон : Limited
Основные цвета : BT.709
Характеристики трансфера : BT.709
Коэффициенты матрицы : BT.709

Аудио #1
Идентификатор : 2
Формат : AC-3
Формат/Информация : Audio Coding 3
Параметр Endianness формата : Big
Идентификатор кодека : A_AC3
Продолжительность : 2 ч. 15 м.
Вид битрейта : Постоянный
Битрейт : 384 Кбит/сек
Каналы : 6 каналов
Расположение каналов : Front: L C R, Side: L R, LFE
Частота : 48,0 КГц
Частота кадров : 31,250 кадров/сек (1536 SPF)
Битовая глубина : 16 бит
Метод сжатия : С потерями
Размер потока : 372 Мбайт (3%)
Заголовок : Дубляж
Язык : Russian
Default : Нет
Forced : Нет

Аудио #2
Идентификатор : 3
Формат : AC-3
Формат/Информация : Audio Coding 3
Параметр Endianness формата : Big
Идентификатор кодека : A_AC3
Продолжительность : 2 ч. 15 м.
Вид битрейта : Постоянный
Битрейт : 192 Кбит/сек
Каналы : 2 канала
Расположение каналов : Front: L R
Частота : 48,0 КГц
Частота кадров : 31,250 кадров/сек (1536 SPF)
Битовая глубина : 16 бит
Метод сжатия : С потерями
Размер потока : 186 Мбайт (2%)
Заголовок : MVO
Язык : Russian
Default : Нет
Forced : Нет

Аудио #3
Идентификатор : 4
Формат : AC-3
Формат/Информация : Audio Coding 3
Параметр Endianness формата : Big
Идентификатор кодека : A_AC3
Продолжительность : 2 ч. 15 м.
Вид битрейта : Постоянный
Битрейт : 192 Кбит/сек
Каналы : 2 канала
Расположение каналов : Front: L R
Частота : 48,0 КГц
Частота кадров : 31,250 кадров/сек (1536 SPF)
Битовая глубина : 16 бит
Метод сжатия : С потерями
Размер потока : 186 Мбайт (2%)
Заголовок : MVO
Язык : Russian
Default : Нет
Forced : Нет

Аудио #4
Идентификатор : 5
Формат : AC-3
Формат/Информация : Audio Coding 3
Параметр Endianness формата : Big
Идентификатор кодека : A_AC3
Продолжительность : 2 ч. 15 м.
Вид битрейта : Постоянный
Битрейт : 384 Кбит/сек
Каналы : 6 каналов
Расположение каналов : Front: L C R, Side: L R, LFE
Частота : 48,0 КГц
Частота кадров : 31,250 кадров/сек (1536 SPF)
Битовая глубина : 16 бит
Метод сжатия : С потерями
Размер потока : 372 Мбайт (3%)
Заголовок : C.Визгунов
Язык : Russian
Default : Нет
Forced : Нет

Аудио #5
Идентификатор : 6
Формат : AC-3
Формат/Информация : Audio Coding 3
Параметр Endianness формата : Big
Идентификатор кодека : A_AC3
Продолжительность : 2 ч. 15 м.
Вид битрейта : Постоянный
Битрейт : 384 Кбит/сек
Каналы : 6 каналов
Расположение каналов : Front: L C R, Side: L R, LFE
Частота : 48,0 КГц
Частота кадров : 31,250 кадров/сек (1536 SPF)
Битовая глубина : 16 бит
Метод сжатия : С потерями
Размер потока : 372 Мбайт (3%)
Заголовок : Ю.Живов
Язык : Russian
Default : Нет
Forced : Нет

Аудио #6
Идентификатор : 7
Формат : AC-3
Формат/Информация : Audio Coding 3
Параметр Endianness формата : Big
Идентификатор кодека : A_AC3
Продолжительность : 2 ч. 15 м.
Вид битрейта : Постоянный
Битрейт : 384 Кбит/сек
Каналы : 6 каналов
Расположение каналов : Front: L C R, Side: L R, LFE
Частота : 48,0 КГц
Частота кадров : 31,250 кадров/сек (1536 SPF)
Битовая глубина : 16 бит
Метод сжатия : С потерями
Размер потока : 372 Мбайт (3%)
Язык : English
Default : Нет
Forced : Нет

Аудио #7
Идентификатор : 8
Формат : AC-3
Формат/Информация : Audio Coding 3
Параметр Endianness формата : Big
Идентификатор кодека : A_AC3
Продолжительность : 2 ч. 15 м.
Вид битрейта : Постоянный
Битрейт : 192 Кбит/сек
Каналы : 2 канала
Расположение каналов : Front: L R
Частота : 48,0 КГц
Частота кадров : 31,250 кадров/сек (1536 SPF)
Битовая глубина : 16 бит
Метод сжатия : С потерями
Размер потока : 186 Мбайт (2%)
Заголовок : Comm
Язык : English
Default : Нет
Forced : Нет

Текст #1
Идентификатор : 9
Формат : UTF-8
Идентификатор кодека : S_TEXT/UTF8
Идентификатор кодека/Информация : UTF-8 Plain Text
Продолжительность : 2 ч. 7 м.
Битрейт : 90 бит/сек
ElementCount : 1681
Размер потока : 84,0 Кбайт (0%)
Язык : Russian
Default : Нет
Forced : Нет

Текст #2
Идентификатор : 10
Формат : UTF-8
Идентификатор кодека : S_TEXT/UTF8
Идентификатор кодека/Информация : UTF-8 Plain Text
Продолжительность : 2 ч. 7 м.
Битрейт : 55 бит/сек
ElementCount : 1504
Размер потока : 52,1 Кбайт (0%)
Язык : English
Default : Нет
Forced : Нет

Меню
00:00:00.000 : en:(Unnamed scene)
00:00:42.000 : en:(Unnamed scene)
00:06:53.000 : en:(Unnamed scene)
00:08:54.000 : en:(Unnamed scene)
00:12:36.000 : en:(Unnamed scene)
00:16:03.000 : en:(Unnamed scene)
00:19:54.000 : en:(Unnamed scene)
00:22:51.000 : en:(Unnamed scene)
00:26:55.000 : en:(Unnamed scene)
00:31:30.000 : en:(Unnamed scene)
00:35:04.000 : en:(Unnamed scene)
00:37:29.000 : en:(Unnamed scene)
00:40:12.000 : en:(Unnamed scene)
00:43:06.000 : en:(Unnamed scene)
00:46:27.000 : en:(Unnamed scene)
00:49:18.000 : en:(Unnamed scene)
00:54:20.000 : en:(Unnamed scene)
00:58:10.000 : en:(Unnamed scene)
01:02:25.000 : en:(Unnamed scene)
01:04:25.000 : en:(Unnamed scene)
01:06:33.000 : en:(Unnamed scene)
01:09:12.000 : en:(Unnamed scene)
01:12:36.000 : en:(Unnamed scene)
01:16:09.000 : en:(Unnamed scene)
01:17:14.000 : en:(Unnamed scene)
01:22:32.000 : en:(Unnamed scene)
01:24:49.000 : en:(Unnamed scene)
01:28:13.000 : en:(Unnamed scene)
01:31:58.000 : en:(Unnamed scene)
01:34:50.000 : en:(Unnamed scene)
01:37:27.000 : en:(Unnamed scene)
01:40:54.000 : en:(Unnamed scene)
01:45:03.000 : en:(Unnamed scene)
01:46:43.000 : en:(Unnamed scene)
01:50:39.000 : en:(Unnamed scene)
01:54:12.000 : en:(Unnamed scene)
01:57:54.000 : en:(Unnamed scene)
02:00:38.000 : en:(Unnamed scene)
02:04:19.000 : en:(Unnamed scene)
02:09:11.000 : en:(Unnamed scene)



Скачать Доказательство.жизни.Proof.of.Life.(Тейлор.Хэкфорд).[2000.боевик.триллер.драма.WEB-DL].[1080p].[Open.Matte].[Dub]+[MVO]x2+[AVO]x2+[Оригинал.Eng]+[Commentary.Eng]+[Sub.Rus.Eng]x2.torrent без регистрации
Золото ЗОЛОТАЯ РАЗДАЧА! СКАЧАННОЕ НЕ ЗАСЧИТЫВАЕТСЯ! Золото
Дата: Зарегистрирован   [ Тип: внутренний ] Как тут cкачать?
MAGNET ссылка
MAGNET ссылка


Скачать .torrent

59 KB

Статус: проверено DHT
Скачан: торрент - 17 раз, раздача полностью - 0 раз
Размер: 11,63 GB
Оценка:  - (Голосов: 0)
Поблагодарили: 0
Поделиться ссылкой на эту раздачу с друзьями:
В контактеFacebookОдноклассникиTwitterLivejournalМой МирLiveinternet
 

 
Показать сообщения:    


Вы не можете начинать темы
Вы не можете отвечать на сообщения
Вы не можете редактировать свои сообщения
Вы не можете удалять свои сообщения
Вы не можете голосовать в опросах
Вы не можете прикреплять файлы к сообщениям
Вы можете скачивать файлы