Loading...
Error

Скачать Ледяной урожай / The Ice Harvest (Харольд Рэмис) [2005, триллер, драма, комедия, криминал, WEB-DL] [1080p] [Dub]+[AVO]+[Оригинал Eng]+[Sub Eng] торрент без регистрации

Статистика раздачи
Размер:  7,48 GB   |    Скачан:  12 раз

Полного источника не было: 25 минут

 
 
 
Автор Сообщение

Marsianka

[] 

Информация о фильме
Название: Ледяной урожай
Оригинальное название: The Ice Harvest
Год выхода: 2005
Жанр: триллер, драма, комедия, криминал
Выпущено: США, Focus Features, Bona Fide Productions
Продолжительность: 01:29:02
Перевод: Дублированный, авторский одноголосый
Режиссер: Харольд Рэмис
В ролях: Джон Кьюсак, Билли Боб Торнтон, Конни Нильсен, Оливер Платт, Рэнди Куэйд, Майк Старр, Нед Беллами, Т. Дж. Ягодовски, Дэвид Паскуэзи, Лара Филлипс
О фильме:
В канун Рождества один ловкач пытается «выставить на деньги» мафию. При этом он заручается помощью владелицы стрип-бара и юриста, работающего на мафию. Последний, к слову сказать, даже не подозревает, что его используют в двойной игре и просто надеялся мирно встретить праздник. Однако сочельник оказывается полон сюрпризов.


Файл
Качество: WEB-DL 1080p
Видео: MPEG-4 AVC, 1920x1080 (16:9), 10500 Кбит/сек, 23.976 fps, 0.211 bit/pixel
Аудио 1: Русский: 48 kHz, AC3, 6 ch, 448 Кбит/с |Дублированный|
Аудио 2: Русский: 48 kHz, AC3, 6 ch, 448 Кбит/с |Авторский, М. Чадов|
Аудио 3: Английский: 48 kHz, AC3, 6 ch, 640 Кбит/с |Оригинал|
Субтитры: Английские

Релиз от:
• Исходник видео WEB-DL Amazon
Общее
Уникальный идентификатор : 245738002679479416730858995729633577632 (0xB8DF6AF3DAE1570BB2163D09CE8B0AA0)
Полное имя : The Ice Harvest.2005.WEB-DL.1080p.mkv
Формат : Matroska
Версия формата : Version 4 / Version 2
Размер файла : 7,48 Гбайт
Продолжительность : 1 ч. 29 м.
Режим общего битрейта : Переменный
Общий поток : 12,0 Мбит/сек
Дата кодирования : UTC 2016-12-22 07:23:54
Программа кодирования : mkvmerge v9.6.0 ('Slave To Your Mind') 64bit
Библиотека кодирования : libebml v1.3.4 + libmatroska v1.4.5

Видео
Идентификатор : 1
Формат : AVC
Формат/Информация : Advanced Video Codec
Профиль формата : High@L4
Параметр CABAC формата : Да
Параметр RefFrames формата : 4 кадра
Идентификатор кодека : V_MPEG4/ISO/AVC
Продолжительность : 1 ч. 29 м.
Вид битрейта : Переменный
Битрейт : 10,5 Мбит/сек
Максимальный битрейт : 15,0 Мбит/сек
Ширина : 1920 пикселей
Высота : 1080 пикселей
Соотношение сторон : 16:9
Режим частоты кадров : Постоянный
Частота кадров : 23,976 (24000/1001) кадра/сек
Цветовое пространство : YUV
Субдискретизация насыщенности : 4:2:0
Битовая глубина : 8 бит
Тип развёртки : Прогрессивная
Бит/(Пиксели*Кадры) : 0.211
Размер потока : 6,52 Гбайт (87%)
Заголовок : The Ice Harvest.2005.WEB-DL.1080p
Библиотека кодирования : x264 core 148 r2623 d5b2374
Настройки программы : cabac=1 / ref=4 / deblock=1:-1:-1 / analyse=0x3:0x133 / me=umh / subme=9 / psy=1 / psy_rd=1.00:0.15 / mixed_ref=1 / me_range=24 / chroma_me=1 / trellis=2 / 8x8dct=1 / cqm=0 / deadzone=21,11 / fast_pskip=1 / chroma_qp_offset=-3 / threads=34 / lookahead_threads=5 / sliced_threads=0 / nr=150 / decimate=1 / interlaced=0 / bluray_compat=0 / constrained_intra=0 / bframes=8 / b_pyramid=2 / b_adapt=2 / b_bias=0 / direct=3 / weightb=1 / open_gop=0 / weightp=2 / keyint=120 / keyint_min=61 / scenecut=0 / intra_refresh=0 / rc_lookahead=120 / rc=crf / mbtree=1 / crf=18.0 / qcomp=0.60 / qpmin=0 / qpmax=69 / qpstep=4 / vbv_maxrate=15000 / vbv_bufsize=31250 / crf_max=0.0 / nal_hrd=vbr / filler=0 / ip_ratio=1.40 / aq=3:1.00
Default : Да
Forced : Нет
Цветовой диапазон : Limited
Основные цвета : BT.709
Характеристики трансфера : BT.709
Коэффициенты матрицы : BT.709

Аудио #1
Идентификатор : 2
Формат : AC-3
Формат/Информация : Audio Coding 3
Параметр Endianness формата : Big
Идентификатор кодека : A_AC3
Продолжительность : 1 ч. 29 м.
Вид битрейта : Постоянный
Битрейт : 448 Кбит/сек
Каналы : 6 каналов
Расположение каналов : Front: L C R, Side: L R, LFE
Частота : 48,0 КГц
Частота кадров : 31,250 кадров/сек (1536 SPF)
Битовая глубина : 16 бит
Метод сжатия : С потерями
Размер потока : 285 Мбайт (4%)
Заголовок : Дубляж
Язык : Russian
Default : Нет
Forced : Нет

Аудио #2
Идентификатор : 3
Формат : AC-3
Формат/Информация : Audio Coding 3
Параметр Endianness формата : Big
Идентификатор кодека : A_AC3
Продолжительность : 1 ч. 29 м.
Вид битрейта : Постоянный
Битрейт : 448 Кбит/сек
Каналы : 6 каналов
Расположение каналов : Front: L C R, Side: L R, LFE
Частота : 48,0 КГц
Частота кадров : 31,250 кадров/сек (1536 SPF)
Битовая глубина : 16 бит
Метод сжатия : С потерями
Размер потока : 285 Мбайт (4%)
Заголовок : Михаил Чадов
Язык : Russian
Default : Нет
Forced : Нет

Аудио #3
Идентификатор : 4
Формат : E-AC-3
Формат/Информация : Enhanced Audio Coding 3
Параметр Endianness формата : Big
Идентификатор кодека : A_EAC3
Продолжительность : 1 ч. 29 м.
Вид битрейта : Постоянный
Битрейт : 640 Кбит/сек
Каналы : 6 каналов
Расположение каналов : Front: L C R, Side: L R, LFE
Частота : 48,0 КГц
Частота кадров : 187,500 кадров/сек (256 SPF)
Метод сжатия : С потерями
Размер потока : 408 Мбайт (5%)
Заголовок : English
Язык : English
Default : Нет
Forced : Нет

Текст
Идентификатор : 5
Формат : UTF-8
Идентификатор кодека : S_TEXT/UTF8
Идентификатор кодека/Информация : UTF-8 Plain Text
Продолжительность : 1 ч. 23 м.
Битрейт : 64 бит/сек
ElementCount : 1220
Размер потока : 39,4 Кбайт (0%)
Заголовок : English
Язык : English
Default : Нет
Forced : Нет



Скачать Ледяной.урожай.The.Ice.Harvest.(Харольд.Рэмис).[2005.триллер.драма.комедия.криминал.WEB-DL].[1080p].[Dub]+[AVO]+[Оригинал.Eng]+[Sub.Eng].torrent без регистрации
Золото ЗОЛОТАЯ РАЗДАЧА! СКАЧАННОЕ НЕ ЗАСЧИТЫВАЕТСЯ! Золото
Дата: Зарегистрирован   [ Тип: внутренний ] Как тут cкачать?
MAGNET ссылка
MAGNET ссылка


Скачать .torrent

38 KB

Статус: проверено DHT
Скачан: торрент - 12 раз, раздача полностью - 0 раз
Размер: 7,48 GB
Оценка:  - (Голосов: 0)
Поблагодарили: 0
Поделиться ссылкой на эту раздачу с друзьями:
В контактеFacebookОдноклассникиTwitterLivejournalМой МирLiveinternet
 

 
Показать сообщения:    


Вы не можете начинать темы
Вы не можете отвечать на сообщения
Вы не можете редактировать свои сообщения
Вы не можете удалять свои сообщения
Вы не можете голосовать в опросах
Вы не можете прикреплять файлы к сообщениям
Вы можете скачивать файлы