Loading...
Error

Скачать Неудобная планета / An Inconvenient Sequel: Truth to Power (Бонни Коэн, Джон Шенк) [2017, документальный, BDRip] [720p] [MVO (RecentFilms)] торрент без регистрации

Статистика раздачи
Размер:  1,12 GB   |    Скачан:  19 раз
Сидов:  2  [  0 KB/s  ]  
 
 
 
Автор Сообщение

МихаНЕзатор

[] 

Информация о фильме
Название: Неудобная планета
Оригинальное название: An Inconvenient Sequel: Truth to Power
Год выхода: 2017
Жанр: документальный
Режиссер: Бонни Коэн, Джон Шенк

В ролях: Эл Гор, Джон Керри, Марко Крапелс, Ангела Меркель, Дональд Трамп, Том Рилли

О фильме: Фильм рассказывает о том, насколько близко человечество подошло к энергетической революции. Бывший вице-президент США Альберт Гор поддерживает идею, согласно которой экологическую угрозу можно предотвратить благодаря человеческой изобретательности и страсти, хотя ставки высоки, как никогда. Он путешествует по всему миру, влияя на международную политику в области климата, а камера следует за ним по пятам, фиксируя моменты частные и публичные, забавные и острые.



Релиз от: RecentFilms

Страна: США
Продолжительность: 01:38:25
Перевод: Любительский (многоголосый закадровый) | RecentFilms

Файл
Кодек: MPEG-4 AVC/H.264
Качество: BDRip 720p
Видео: 1280x720, 23.976 fps, 1500 Kbps, 0.068 bit/pixel
Звук:
Аудио rus: AAC, 48 kHz, 2 ch, 128 Kbps
Субтитры: отсутствуют
Реклама: присутствует

АНОНСЫ ПОПУЛЯРНЫХ РАЗДАЧ

General
Unique ID : 217150075728405309024905401594726185341 (0xA35D9554ED3EA6999DCE43D1AE39F97D)
Complete name : F:FilmsAn.Inconvenient.Sequel.Truth.to.Power.2017.720pAn.Inconvenient.Sequel.Truth.to.Power.2017.720p.mkv
Format : Matroska
Format version : Version 4 / Version 2
File size : 1.12 GiB
Duration : 1h 38mn
Overall bit rate : 1 630 Kbps
Encoded date : UTC 2017-11-04 02:04:58
Writing application : mkvmerge v17.0.0 ('Be Ur Friend') 64-bit
Writing library : libebml v1.3.5 + libmatroska v1.4.8

Video
ID : 1
Format : AVC
Format/Info : Advanced Video Codec
Format profile : High@L3
Format settings, CABAC : No
Format settings, ReFrames : 1 frame
Codec ID : V_MPEG4/ISO/AVC
Duration : 1h 38mn
Bit rate : 1 500 Kbps
Width : 1 280 pixels
Height : 720 pixels
Display aspect ratio : 16:9
Frame rate mode : Constant
Frame rate : 23.976 (23976/1000) fps
Color space : YUV
Chroma subsampling : 4:2:0
Bit depth : 8 bits
Scan type : Progressive
Bits/(Pixel*Frame) : 0.068
Stream size : 1.03 GiB (92%)
Writing library : x264 core 148 r2665 a01e339
Encoding settings : cabac=0 / ref=1 / deblock=1:0:0 / analyse=0x3:0x113 / me=hex / subme=7 / psy=1 / psy_rd=1.00:0.00 / mixed_ref=0 / me_range=16 / chroma_me=1 / trellis=1 / 8x8dct=1 / cqm=0 / deadzone=21,11 / fast_pskip=1 / chroma_qp_offset=-2 / threads=12 / lookahead_threads=2 / sliced_threads=0 / nr=0 / decimate=1 / interlaced=0 / bluray_compat=0 / constrained_intra=0 / bframes=0 / weightp=2 / keyint=250 / keyint_min=23 / scenecut=40 / intra_refresh=0 / rc_lookahead=40 / rc=abr / mbtree=1 / bitrate=1500 / ratetol=1.0 / qcomp=0.60 / qpmin=0 / qpmax=69 / qpstep=4 / ip_ratio=1.40 / aq=1:1.00
Default : Yes
Forced : No

Audio
ID : 2
Format : AAC
Format/Info : Advanced Audio Codec
Format profile : LC
Codec ID : A_AAC
Duration : 1h 38mn
Bit rate : 128 Kbps
Channel(s) : 2 channels
Channel positions : Front: L R
Sampling rate : 48.0 KHz
Frame rate : 46.875 fps (1024 spf)
Compression mode : Lossy
Stream size : 90.2 MiB (8%)
Language : English
Default : Yes
Forced : No



Скачать Неудобная.планета.An.Inconvenient.Sequel.Truth.to.Power.(Бонни.Коэн.Джон.Шенк).[2017.документальный.BDRip].[720p].[MVO.(RecentFilms)].torrent без регистрации
Золото ЗОЛОТАЯ РАЗДАЧА! СКАЧАННОЕ НЕ ЗАСЧИТЫВАЕТСЯ! Золото
Дата: Зарегистрирован   [ Тип: внешний ] Как тут cкачать?
MAGNET ссылка
MAGNET ссылка


Скачать .torrent

12 KB

Статус: проверено DHT
Скачан: торрент - 19 раз, раздача полностью - 2 раз
Размер: 1,12 GB
Оценка:  - (Голосов: 0)
Поблагодарили: 0
Поделиться ссылкой на эту раздачу с друзьями:
В контактеFacebookОдноклассникиTwitterLivejournalМой МирLiveinternet
 

 
Показать сообщения:    


Вы не можете начинать темы
Вы не можете отвечать на сообщения
Вы не можете редактировать свои сообщения
Вы не можете удалять свои сообщения
Вы не можете голосовать в опросах
Вы не можете прикреплять файлы к сообщениям
Вы можете скачивать файлы