Loading...
Error

Скачать Толстый, больной и почти мёртвый / Fat, Sick & Nearly Dead (Джо Кросс, Курт Энгфер) [2010, документальный, WEB-DLRip] [720p] [VO]+[Eng]x2+[Sub] торрент без регистрации

Статистика раздачи
Размер:  3,2 GB   |    Скачан:  18 раз
Сидов:  1  [  0 KB/s  ]  
 
 
 
Автор Сообщение

Marsianka

[] 


Информация о фильме
Название: Толстый, больной и почти мёртвый
Оригинальное название: Fat, Sick & Nearly Dead
Год выхода: 2010
Жанр: документальный
Режиссер: Джо Кросс, Курт Энгфер

О фильме:
«Толстый, больной и почти мёртвый» — после этого вердикта врачей 40-летний австралийский бизнесмен Джо Кросс, весивший 150 кг, выбросил кучу таблеток, которые принимал 8 лет, купил соковыжималку, сел в машину и отправился куда глаза глядят по дорогам США. Его цель — 60 дней пить только свежевыжатые соки из фруктов, овощей, зелени и посмотреть, сможет ли это вернуть ему здоровье и стройность. Все путешествие снимал на камеру оператор, которого Джо пригласил с собой, чтобы труднее было бросить затею.
Итог — минус 30 кг и невероятное оздоровление организма, из-за которого отпала необходимость принимать таблетки. Оставшиеся 20 кг Джо сбросил уже дома, еще через 2 месяца, добавив к сокам салаты, блюда из круп, бобовых, орехи и семечки.
Фильм шаг за шагом рассказывает историю похудения на соках. Он завоевал множество наград, а Джо стал звездой здорового питания.



Страна: Австралия, США
Продолжительность: 01:37:16
Перевод: Профессиональный (одноголосый закадровый)

Файл
Кодек: MPEG-4 AVC
Качество: WEB-DLRip 720p
Видео: 1280x720, 4708 Кбит/с, 25 кадр/с
Аудио 1: Русский, MP3, 2 канала, 256 Кбит/с
Аудио 2: Английский, AAC, 2 канала, 128 Кбит/с
Аудио 3: Английский, AC3, 2 канала, 192 Кбит/с
Субтитры: Русские, английский и другие
Формат : Matroska
Версия формата : Version 4 / Version 2
Размер файла : 3,20 Гбайт
Продолжительность : 1 ч. 37 м.
Общий поток : 4708 Кбит/сек
Дата кодирования : UTC 2014-08-27 11:08:20
Программа кодирования : mkvmerge v7.1.0 ('Good Love') 32bit built on Jul 27 2014 12:59:18
Библиотека кодирования : libebml v1.3.0 + libmatroska v1.4.1
DURATION : 01:32:08.474000000
NUMBER_OF_FRAMES : 1896
NUMBER_OF_BYTES : 112815
_STATISTICS_WRITING_APP : mkvmerge v7.1.0 ('Good Love') 32bit built on Jul 27 2014 12:59:18
_STATISTICS_WRITING_DATE_UTC : 2014-08-27 11:08:20
_STATISTICS_TAGS : BPS DURATION NUMBER_OF_FRAMES NUMBER_OF_BYTES

Видео
Идентификатор : 1
Формат : AVC
Формат/Информация : Advanced Video Codec
Профиль формата : High@L3.1
Параметр CABAC формата : Нет
Параметр ReFrames формата : 2 кадра
Идентификатор кодека : V_MPEG4/ISO/AVC
Продолжительность : 1 ч. 37 м.
Ширина : 1280 пикселей
Высота : 720 пикселей
Соотношение сторон : 16:9
Режим частоты кадров : Постоянный
Частота кадров : 23,976 кадра/сек
Цветовое пространство : YUV
Субдискретизация насыщенности : 4:2:0
Битовая глубина : 8 бит
Тип развёртки : Прогрессивная
Язык : English
Default : Да
Forced : Нет
Основные цвета : BT.709
Характеристики трансфера : BT.709
Коэффициенты матрицы : BT.709

Аудио #1
Идентификатор : 2
Формат : MPEG Audio
Версия формата : Version 1
Профиль формата : Layer 3
Режим : Joint stereo
Расширение режима : MS Stereo
Идентификатор кодека : A_MPEG/L3
Идентификатор кодека/Подсказка : MP3
Продолжительность : 1 ч. 37 м.
Вид битрейта : Постоянный
Битрейт : 256 Кбит/сек
Каналы : 2 канала
Частота : 44,1 КГц
Метод сжатия : С потерями
Задержка видео : 16 мс.
Размер потока : 178 Мбайт (5%)
Заголовок : Russian Audio
Библиотека кодирования : LAME3.98.4
Язык : Russian
Default : Да
Forced : Нет

Аудио #2
Идентификатор : 3
Формат : AAC
Формат/Информация : Advanced Audio Codec
Профиль формата : LC
Идентификатор кодека : A_AAC
Продолжительность : 1 ч. 37 м.
Каналы : 2 канала
Расположение каналов : Front: L R
Частота : 48,0 КГц
Метод сжатия : С потерями
Заголовок : Main Audio
Язык : English
Default : Нет
Forced : Нет

Аудио #3
Идентификатор : 4
Формат : AC-3
Формат/Информация : Audio Coding 3
Расширение режима : CM (complete main)
Параметр Endianness формата : Big
Идентификатор кодека : A_AC3
Продолжительность : 1 ч. 37 м.
Вид битрейта : Постоянный
Битрейт : 192 Кбит/сек
Каналы : 2 канала
Расположение каналов : Front: L R
Частота : 48,0 КГц
Битовая глубина : 16 бит
Метод сжатия : С потерями
Задержка видео : 5 с. 0 мс.
Размер потока : 134 Мбайт (4%)
Заголовок : Directors' Commentary
Язык : English
Default : Нет
Forced : Нет

Текст #1
Идентификатор : 5
Формат : UTF-8
Идентификатор кодека : S_TEXT/UTF8
Идентификатор кодека/Информация : UTF-8 Plain Text
Заголовок : Russian
Язык : Russian
Default : Нет
Forced : Нет

Текст #2
Идентификатор : 6
Формат : UTF-8
Идентификатор кодека : S_TEXT/UTF8
Идентификатор кодека/Информация : UTF-8 Plain Text
Заголовок : English CC
Язык : English
Default : Нет
Forced : Нет

Текст #3
Идентификатор : 7
Формат : ASS
Идентификатор кодека : S_TEXT/ASS
Идентификатор кодека/Информация : Advanced Sub Station Alpha
Метод сжатия : Без потерь
Язык : Arabic
Default : Нет
Forced : Нет

Текст #4
Идентификатор : 8
Формат : UTF-8
Идентификатор кодека : S_TEXT/UTF8
Идентификатор кодека/Информация : UTF-8 Plain Text
Язык : French
Default : Нет
Forced : Нет

Текст #5
Идентификатор : 9
Формат : UTF-8
Идентификатор кодека : S_TEXT/UTF8
Идентификатор кодека/Информация : UTF-8 Plain Text
Язык : Portuguese
Default : Нет
Forced : Нет

Текст #6
Идентификатор : 10
Формат : UTF-8
Идентификатор кодека : S_TEXT/UTF8
Идентификатор кодека/Информация : UTF-8 Plain Text
Язык : German
Default : Нет
Forced : Нет

Текст #7
Идентификатор : 11
Формат : UTF-8
Идентификатор кодека : S_TEXT/UTF8
Идентификатор кодека/Информация : UTF-8 Plain Text
Язык : Japanese
Default : Нет
Forced : Нет

Текст #8
Идентификатор : 12
Формат : UTF-8
Идентификатор кодека : S_TEXT/UTF8
Идентификатор кодека/Информация : UTF-8 Plain Text
Язык : Hungarian
Default : Нет
Forced : Нет

Текст #9
Идентификатор : 13
Формат : UTF-8
Идентификатор кодека : S_TEXT/UTF8
Идентификатор кодека/Информация : UTF-8 Plain Text
Язык : Dutch
Default : Нет
Forced : Нет

Меню
00:00:00.000 : :G'Day Joe
00:08:30.000 : :Time To Juice
00:15:41.000 : :Land Down Under
00:28:00.000 : :Cowboy Café
00:37:02.500 : :Joe's Disease
00:42:26.000 : :Joe Meets Phil
00:47:36.000 : :Apple In The Sky
00:50:23.000 : :Call for Help
00:59:04.500 : :Rebooting Phil
01:08:43.500 : :The 4th of July
01:13:26.000 : :Day 30 - Phil
01:22:22.000 : :The Heart of a Bear
01:27:54.500 : :Personal Responsibility



Скачать Толстый.больной.и.почти.мёртвый.Fat.Sick.&.Nearly.Dead.(Джо.Кросс.Курт.Энгфер).[2010.документальный.WEB-DLRip].[720p].[VO]+[Eng]x2+[Sub].torrent без регистрации
Золото ЗОЛОТАЯ РАЗДАЧА! СКАЧАННОЕ НЕ ЗАСЧИТЫВАЕТСЯ! Золото
Дата: Зарегистрирован   [ Тип: внутренний ] Как тут cкачать?
MAGNET ссылка
MAGNET ссылка


Скачать .torrent

17 KB

Статус: проверено DHT
Скачан: торрент - 18 раз, раздача полностью - 2 раз
Размер: 3,2 GB
Оценка:  - (Голосов: 0)
Поблагодарили: 0
Поделиться ссылкой на эту раздачу с друзьями:
В контактеFacebookОдноклассникиTwitterLivejournalМой МирLiveinternet
 

 
Показать сообщения:    


Вы не можете начинать темы
Вы не можете отвечать на сообщения
Вы не можете редактировать свои сообщения
Вы не можете удалять свои сообщения
Вы не можете голосовать в опросах
Вы не можете прикреплять файлы к сообщениям
Вы можете скачивать файлы