Loading...
Error

Скачать Старикам тут не место / No Country for Old Men (Итан Коэн, Джоэл Коэн) [2007, триллер, драма, криминал, BDRip-AVC] [Dub]+[Sub Rus, Eng]x2 торрент без регистрации

Статистика раздачи
Размер:  746 MB   |    Скачан:  29 раз
Сидов:  1  [  0 KB/s  ]  
 
 
 
Автор Сообщение

Marsianka

[] 

Информация о фильме
Название: Старикам тут не место
Оригинальное название: No Country for Old Men
Год выхода: 2007
Жанр: триллер, драма, криминал
Режиссер: Итан Коэн, Джоэл Коэн
В ролях: Томми Ли Джонс, Джош Бролин, Хавьер Бардем, Келли Макдоналд, Вуди Харрельсон, Бет Грант, Гаррет Диллахант, Тесс Харпер, Бэрри Корбин, Стивен Рут, Роджер Бойс, Ана Ридер

О фильме :
Сюжет фильма развивается в Техасе, в июне 1980 года. Преступность в этом регионе растет с бешеной скоростью, а сами преступники становятся все более жестокими и бесчеловечными. Главный герой Ллвелин Мосс, ветеран Вьетнамской войны, отправляется на охоту неподалеку от Рио-Гранде. Там он натыкается на гору трупов, расстрелянных машин, наркотиков и кучу денег. Судя по всему это была очередная перестрелка между бандами наркоторговцев. У прихватившего с собой денюжку главного героя начинаются проблемы от которых ему никуда не деться...



Страна: США
Студия: Miramax Films, Paramount Vantage, Mike Zoss Productions
Продолжительность: 02:02:10
Перевод: Профессиональный (полное дублирование)

Файл
Формат: MKV
Качество: BDRip-AVC (BDRemux)
Видео: MPEG-4 AVC, 768x328, ~ 776 Кбит/с
Аудио: AAC-LC, 2 ch, ~ 76 Кбит/с
Субтитры: Русские, английские
Общее
Уникальный идентификатор : 235517653295163124089034333854279264651 (0xB12F0CD2C880A13BAC64A9A68659E98B)
Полное имя : D:MOVIESStarikam.tut.ne.mesto.2007.ExKinoRay.mkv
Формат : Matroska
Версия формата : Version 4 / Version 2
Размер файла : 746 Мбайт
Продолжительность : 2 ч. 2 м.
Общий поток : 854 Кбит/сек
Дата кодирования : UTC 2017-11-05 12:59:09
Программа кодирования : mkvmerge v15.0.0 ('Duel with the Devil') 64-bit
Библиотека кодирования : libebml v1.3.5 + libmatroska v1.4.5

Видео
Идентификатор : 1
Формат : AVC
Формат/Информация : Advanced Video Codec
Профиль формата : High@L4.1
Параметр CABAC формата : Да
Параметр RefFrames формата : 10 кадров
Идентификатор кодека : V_MPEG4/ISO/AVC
Продолжительность : 2 ч. 2 м.
Битрейт : 776 Кбит/сек
Ширина : 768 пикселей
Высота : 328 пикселей
Соотношение сторон : 2,35:1
Режим частоты кадров : Постоянный
Частота кадров : 23,976 (24000/1001) кадра/сек
Цветовое пространство : YUV
Субдискретизация насыщенности : 4:2:0
Битовая глубина : 8 бит
Тип развёртки : Прогрессивная
Бит/(Пиксели*Кадры) : 0.128
Размер потока : 678 Мбайт (91%)
Библиотека кодирования : x264 core 152 r2851kMod ba24899
Настройки программы : cabac=1 / ref=10 / deblock=1:-2:-2 / analyse=0x3:0x133 / me=umh / subme=11 / psy=1 / fade_compensate=0.00 / psy_rd=1.00:0.05 / mixed_ref=1 / me_range=32 / chroma_me=1 / trellis=2 / 8x8dct=1 / cqm=0 / deadzone=21,11 / fast_pskip=0 / chroma_qp_offset=-3 / threads=6 / lookahead_threads=1 / sliced_threads=0 / nr=0 / decimate=0 / interlaced=0 / bluray_compat=0 / constrained_intra=0 / bframes=10 / b_pyramid=2 / b_adapt=2 / b_bias=0 / direct=3 / weightb=1 / open_gop=0 / weightp=2 / keyint=240 / keyint_min=23 / scenecut=40 / intra_refresh=0 / rc_lookahead=40 / rc=2pass / mbtree=0 / bitrate=776 / ratetol=1.0 / qcomp=0.60 / qpmin=0 / qpmax=69 / qpstep=4 / cplxblur=20.0 / qblur=0.5 / vbv_maxrate=50000 / vbv_bufsize=62500 / nal_hrd=none / filler=0 / ip_ratio=1.40 / pb_ratio=1.30 / aq=3:1.00
Default : Да
Forced : Нет

Аудио
Идентификатор : 2
Формат : AAC
Формат/Информация : Advanced Audio Codec
Профиль формата : LC
Идентификатор кодека : A_AAC
Продолжительность : 2 ч. 2 м.
Битрейт : 76,0 Кбит/сек
Каналы : 2 канала
Расположение каналов : Front: L R
Частота : 48,0 КГц
Частота кадров : 46,875 кадров/сек (1024 SPF)
Метод сжатия : С потерями
Задержка видео : 9 мс.
Размер потока : 66,4 Мбайт (9%)
Default : Да
Forced : Нет

Текст #1
Идентификатор : 3
Формат : UTF-8
Идентификатор кодека : S_TEXT/UTF8
Идентификатор кодека/Информация : UTF-8 Plain Text
Продолжительность : 1 ч. 55 м.
Битрейт : 66 бит/сек
ElementCount : 953
Размер потока : 56,8 Кбайт (0%)
Язык : Russian
Default : Нет
Forced : Нет

Текст #2
Идентификатор : 4
Формат : UTF-8
Идентификатор кодека : S_TEXT/UTF8
Идентификатор кодека/Информация : UTF-8 Plain Text
Продолжительность : 1 ч. 55 м.
Битрейт : 40 бит/сек
ElementCount : 883
Размер потока : 34,2 Кбайт (0%)
Язык : English
Default : Нет
Forced : Нет

Меню
00:00:00.000 : en:Old Timers
00:03:44.474 : en:Last Man Standing
00:13:41.904 : en:The Getting Place
00:20:50.416 : en:Call It, Friend-O
00:27:52.838 : en:Deal Gone Wrong
00:36:58.383 : en:Jackpot
00:41:52.427 : en:Another Additional Room
00:52:17.051 : en:On All Night
01:04:59.312 : en:Medico
01:13:08.801 : en:Ultimate Badass
01:20:05.801 : en:The Best Deal
01:27:35.876 : en:The One Right Tool
01:34:35.128 : en:What's Coming
01:42:21.010 : en:Overmatched
01:47:22.645 : en:Best I Can Do
01:56:32.652 : en:End Credits
Релиз от:



Скачать Старикам.тут.не.место.No.Country.for.Old.Men.(Итан.Коэн.Джоэл.Коэн).[2007.триллер.драма.криминал.BDRip-AVC].[Dub]+[Sub.Rus.Eng]x2.torrent без регистрации
Золото ЗОЛОТАЯ РАЗДАЧА! СКАЧАННОЕ НЕ ЗАСЧИТЫВАЕТСЯ! Золото
Дата: Зарегистрирован   [ Тип: внутренний ] Как тут cкачать?
MAGNET ссылка
MAGNET ссылка


Скачать .torrent

16 KB

Статус: проверено DHT
Скачан: торрент - 29 раз, раздача полностью - 1 раз
Размер: 746 MB
Оценка:  - (Голосов: 0)
Поблагодарили: 0
Поделиться ссылкой на эту раздачу с друзьями:
В контактеFacebookОдноклассникиTwitterLivejournalМой МирLiveinternet
 

 
Показать сообщения:    


Вы не можете начинать темы
Вы не можете отвечать на сообщения
Вы не можете редактировать свои сообщения
Вы не можете удалять свои сообщения
Вы не можете голосовать в опросах
Вы не можете прикреплять файлы к сообщениям
Вы можете скачивать файлы