Loading...
Error

Скачать Тачки 3 / Cars 3 (Джон Лассетер, Джо Рэнфт) [2017, Мультфильм, комедия, приключения, семейный, спорт, полнометражный, BDRip][1080p] [DUB Лицензия] [R.G. GoldenShara] торрент без регистрации

Статистика раздачи
Размер:  4,83 GB   |    Скачан:  161 раз
Сидов:  1  [  0 KB/s  ]  
 
 
 
Автор Сообщение

Magnetto83

[] 


Тачки 3 / Cars 3


Год выпуска: 2017
Выпущено: США | Walt Disney Pictures, Pixar Animation Studios
Жанр: Мультфильм, комедия, приключения, семейный, спорт, полнометражный
Продолжительность: 01:42:25
Перевод 1 и 2: Профессиональный (полное дублирование)| Blu-ray EUR |
Субтитры: Русские (Форс.+Полные), Английские (Full+SHD)
Навигация по главам: Сохранены оригинальные главы как на Blu-ray

Слоган: «Гонка продолжается, пока сверкает молния»

Режиссер: Джон Лассетер, Джо Рэнфт

В ролях: Оуэн Уилсон, Пол Ньюман, Бонни Хант, Ларри Кейбл Гай, Чич Марин, Тони Шэлоуб, Гуидо Куарони, Дженифер Льюис, Пол Дули, Майкл Уоллис

Описание: Герой все еще продолжает показывать лучшие результаты на всех турнирах, однако победы даются ему не так легко, а конкуренция становится все жестче. Молнию Маккуина ждут захватывающие приключения, где он встретит новых друзей, а также поймет, что не только скорость и мощность мотора делают гонщика чемпионом.



Возраст: 6+ (Зрителям, достигшим 6 лет)

Качество: BDRip 1080p
Формат: MKV
Видео кодек: H.264
Аудио кодек: AC3
Видео: 1920x804 (2.40:1), 5463 Кбит/с, 23.976 fps
Аудио: Русский Dolby Digital 5.1 (640 Кбит/с) Вшит в контейнер
Аудио: Украиский Dolby Digital 5.1 (640 Кбит/с) Отдельным файлом


x264 [info]: frame I:1387 Avg QP:15.86 size:207075
x264 [info]: frame P:43765 Avg QP:18.20 size: 48711
x264 [info]: frame B:102181 Avg QP:20.70 size: 17395
x264 [info]: consecutive B-frames: 8.9% 4.7% 11.8% 29.0% 22.2% 20.8% 1.5% 0.5% 0.6%
x264 [total]: encoded 147333 frames, 1.34 fps, 5463.20 kb/s



General
Complete name : G:\Видео\Мои Рипы 1080p Мульты\Тачки. Трилогия. 2006-2017 Dub Rus Ukr BDRip 1080p\Тачки 3 2017 Dub Rus Ukr BDRip 1080p\Тачки 3 2017 Dub BDRip 1080p.mkv
Format : Matroska
Format version : Version 4 / Version 2
File size : 4.37 GiB
Duration : 1h 42mn
Overall bit rate : 6 106 Kbps
Movie name : Тачки 3 2017 Dub Rus BDRip 1080p By R.G. GoldenShara
Encoded date : UTC 2017-11-20 20:53:44
Writing application : mkvmerge v7.0.0 ('Where We Going') 64bit built on Jun 9 2014 15:16:27
Writing library : libebml v1.3.0 + libmatroska v1.4.1
Attachements : cover.jpg
DURATION : 01:41:14.660000000
NUMBER_OF_FRAMES : 2109
NUMBER_OF_BYTES : 66106
_STATISTICS_WRITING_APP : mkvmerge v7.0.0 ('Where We Going') 64bit built on Jun 9 2014 15:16:27
_STATISTICS_WRITING_DATE_UTC : 2017-11-20 20:53:44
_STATISTICS_TAGS : BPS DURATION NUMBER_OF_FRAMES NUMBER_OF_BYTES

Video
ID : 1
Format : AVC
Format/Info : Advanced Video Codec
Format profile : High@L4.1
Format settings, CABAC : Yes
Format settings, ReFrames : 5 frames
Codec ID : V_MPEG4/ISO/AVC
Duration : 1h 42mn
Bit rate : 5 463 Kbps
Width : 1 920 pixels
Height : 804 pixels
Display aspect ratio : 2.40:1
Frame rate mode : Constant
Frame rate : 23.976 fps
Color space : YUV
Chroma subsampling : 4:2:0
Bit depth : 8 bits
Scan type : Progressive
Bits/(Pixel*Frame) : 0.148
Stream size : 3.82 GiB (88%)
Title : Тачки 3 2017 BDRip 1080p By Magnetto 83
Writing library : x264 core 146 r2538 121396c
Encoding settings : cabac=1 / ref=5 / deblock=1:0:0 / analyse=0x3:0x113 / me=umh / subme=10 / psy=1 / psy_rd=1.00:0.00 / mixed_ref=1 / me_range=32 / chroma_me=1 / trellis=2 / 8x8dct=1 / cqm=0 / deadzone=21,11 / fast_pskip=0 / chroma_qp_offset=-2 / threads=3 / lookahead_threads=1 / sliced_threads=0 / nr=0 / decimate=1 / interlaced=0 / bluray_compat=0 / constrained_intra=0 / bframes=8 / b_pyramid=2 / b_adapt=2 / b_bias=0 / direct=3 / weightb=1 / open_gop=0 / weightp=2 / keyint=250 / keyint_min=23 / scenecut=40 / intra_refresh=0 / rc=2pass / mbtree=0 / bitrate=5463 / ratetol=1.0 / qcomp=0.60 / qpmin=0 / qpmax=69 / qpstep=4 / cplxblur=20.0 / qblur=0.5 / ip_ratio=1.40 / pb_ratio=1.30 / aq=2:1.00
Language : English
Default : Yes
Forced : No

Audio
ID : 2
Format : AC-3
Format/Info : Audio Coding 3
Mode extension : CM (complete main)
Format settings, Endianness : Big
Codec ID : A_AC3
Duration : 1h 42mn
Bit rate mode : Constant
Bit rate : 640 Kbps
Channel(s) : 6 channels
Channel positions : Front: L C R, Side: L R, LFE
Sampling rate : 48.0 KHz
Compression mode : Lossy
Stream size : 469 MiB (10%)
Title : DD 5.1 @ 640 Kbps - Дубляж | Blu-ray EUR |
Language : Russian
Default : Yes
Forced : No

Text #1
ID : 3
Format : UTF-8
Codec ID : S_TEXT/UTF8
Codec ID/Info : UTF-8 Plain Text
Title : Форс.
Language : Russian
Default : Yes
Forced : No

Text #2
ID : 4
Format : UTF-8
Codec ID : S_TEXT/UTF8
Codec ID/Info : UTF-8 Plain Text
Title : Полные
Language : Russian
Default : No
Forced : No

Text #3
ID : 5
Format : UTF-8
Codec ID : S_TEXT/UTF8
Codec ID/Info : UTF-8 Plain Text
Title : Full
Language : English
Default : No
Forced : No

Text #4
ID : 6
Format : UTF-8
Codec ID : S_TEXT/UTF8
Codec ID/Info : UTF-8 Plain Text
Title : SDH
Language : English
Default : No
Forced : No

Menu
00:00:00.000 : en:Champ McQueen
00:04:57.255 : en:Storm Front
00:10:54.988 : en:Crash
00:13:59.422 : en:Wake-up Call
00:18:15.344 : en:Phone Call
00:21:07.641 : en:Modern Training
00:34:08.880 : en:Deal
00:37:52.103 : en:Beach
00:42:44.812 : en:Crazy Eight
00:49:44.398 : en:Cruz's Dream
00:53:57.734 : en:Facetime
00:58:17.702 : en:Olive Branch
00:59:27.522 : en:Smokey
01:02:15.940 : en:Hud's Win
01:06:35.533 : en:It's Over
01:08:33.109 : en:Old School Training
01:15:48.126 : en:Florida Arrival
01:20:57.852 : en:Pit Stop
01:29:42.418 : en:Victory Lane
01:32:17.031 : en:Epilogue
01:34:00.092 : en:End Credits







Скачать Тачки.3.Cars.3.(Джон.Лассетер.Джо.Рэнфт).[2017.Мультфильм.комедия.приключения.семейный.спорт.полнометражный.BDRip][1080p].[DUB.Лицензия].[R.G.GoldenShara].torrent без регистрации
Золото ЗОЛОТАЯ РАЗДАЧА! СКАЧАННОЕ НЕ ЗАСЧИТЫВАЕТСЯ! Золото
Дата: Зарегистрирован   [ Тип: внутренний ] Как тут cкачать?
MAGNET ссылка
MAGNET ссылка


Скачать .torrent

13 KB

Статус: проверено
Скачан: торрент - 161 раз, раздача полностью - 137 раз
Размер: 4,83 GB
Оценка:  4,8 (Голосов: 5)
Поблагодарили: 13
Поделиться ссылкой на эту раздачу с друзьями:
В контактеFacebookОдноклассникиTwitterLivejournalМой МирLiveinternet
 

 

Magnetto83

[] 

Обновлено до лицензии. Заменён звук от тунца на звук от Blu-ray EUR 640 Kbps. Внешним файлом добавлена украинская звуковая дорога того же формата и качества. Дополнительно вшиты русские форсированные субтитры.
 

wuwechka

[] 

ay Скидыщ. Все как всегда супер.
 

Magnetto83

[] 

wuwechka писал(а):

ay Скидыщ. Все как всегда супер.
ah bs
 

viktor33

[] 

Magnetto83
Уважаемый, не подскажите где можно найти локализированый видеоряд?
 

Magnetto83

[] 

ab Пока такого не встречал! ac Может на каких-то ресурсах и есть исходники с локализацией видео ряда. bw К сожалению подсказать не могу! bn
 

7Жнец7

[] 

Прошу сделать BDRip 720p.
Интересный мультик.
 
Показать сообщения:    


Вы не можете начинать темы
Вы не можете отвечать на сообщения
Вы не можете редактировать свои сообщения
Вы не можете удалять свои сообщения
Вы не можете голосовать в опросах
Вы не можете прикреплять файлы к сообщениям
Вы можете скачивать файлы