Loading...
Error

Скачать Ночной рейс / Red Eye (Уэс Крэйвен) [2005, триллер, боевик, WEB-DL] [1080p] [Dub]+[MVO]+[DVO]+[AVO]+[Оригинал Eng]+[Commentary Eng]+[Sub Rus, Eng]x2 торрент без регистрации

Статистика раздачи
Размер:  6,72 GB   |    Скачан:  17 раз
Сидов:  1  [  0 KB/s  ]  
 
 
 
Автор Сообщение

Marsianka

[] 

Ночной рейс / Red Eye

Страх начинает полёт


✧ Год выхода: 2005
Жанр: триллер, боевик
✧ Выпущено: США, DreamWorks
✧ Продолжительность: 01:25:30
✧ Перевод: Дублированный, профессиональный многоголосый, профессиональный двухголосый, авторский одноголосый
✧ Режиссер: Уэс Крэйвен
✧ В ролях: Рэйчел МакАдамс, Киллиан Мёрфи, Брайан Кокс, Тина Андерсон, Кайл Гэллнер, Эмбер Мид, Бриттани Оакс, Том Элкинс, Джэйма Мэйс
✧ О фильме:
Лиза Рейзерт ненавидит летать, но кошмар, который ожидает ее во время ночного рейса в Майами не имеет ничего общего с боязнью полетов. Спустя пару минут после взлета, очаровательный сосед Лизы, Джексон, открывает ей страшную правду своего присутствия на борту: он – участник заговора с целью убить богатого и могущественного бизнесмена, а Лиза – главный ключ к успешной реализации плана, ведь она работает в отеле, где на днях остановится мишень заговорщиков. Если она откажется сотрудничать, то наемник, ожидающий звонка от Джексона, убьет ее отца. В самолете, летящем на высоте 9 тыс. метров, убежать некуда, но и обратиться за помощью, без того, чтобы подвергнуть опасности жизни отца, пассажиров, да и свою собственную, Лиза не может. Девушка понимает, что времени остается все меньше и меньше, и отчаянно ищет способ помешать своему захватчику и предотвратить убийство.


Файл
✧ Качество: WEB-DL 1080p
✧ Видео: MPEG4 AVC, 1920x1080 (16:9), 8412 Kbps, 23.976 fps
✧ Аудио 1: Russian: AC3 / 5.1 / 48 kHz / 384 kbps |DUB, Нева|
✧ Аудио 2: Russian: DTS / 5.1 / 48 kHz / 768 kbps |DVO, Гланц и Королёва|
✧ Аудио 3: Russian: AC3 / 5.1 / 48 kHz / 448 kbps |MVO, Tycoon|
✧ Аудио 4: Russian: AC3 / 5.1 / 48 kHz / 384 kbps |AVO, А. Карповский|
✧ Аудио 5: English: AC3 / 5.1 / 48 kHz / 448 kbps |Оригинал|
✧ Аудио 6: English: AC3 / 2.0 / 48 kHz / 192 kbps |Commentary|
✧ Субтитры: Русские, английские
✧ Навигация по главам: есть
• Исходник видео WEB-DL Amazon
Общее
Уникальный идентификатор : 206337973434139078728105366272928846683 (0x9B3B3F88135983B7AC829DE5F95B135B)
Полное имя : Red.Eye.2005.WEB-DL.1080p.mkv
Формат : Matroska
Версия формата : Version 4 / Version 2
Размер файла : 6,72 Гбайт
Продолжительность : 1 ч. 25 м.
Режим общего битрейта : Переменный
Общий поток : 11,2 Мбит/сек
Дата кодирования : UTC 2016-11-10 07:36:28
Программа кодирования : mkvmerge v7.4.0 ('Circles') 64bit built on Dec 12 2014 12:19:56
Библиотека кодирования : libebml v1.3.0 + libmatroska v1.4.1
Attachments : poster

Видео
Идентификатор : 1
Формат : AVC
Формат/Информация : Advanced Video Codec
Профиль формата : High@L4
Параметр CABAC формата : Да
Параметр RefFrames формата : 4 кадра
Идентификатор кодека : V_MPEG4/ISO/AVC
Продолжительность : 1 ч. 25 м.
Вид битрейта : Переменный
Битрейт : 8412 Кбит/сек
Максимальный битрейт : 15,0 Мбит/сек
Ширина : 1920 пикселей
Высота : 1080 пикселей
Соотношение сторон : 16:9
Режим частоты кадров : Постоянный
Частота кадров : 23,976 (24000/1001) кадра/сек
Цветовое пространство : YUV
Субдискретизация насыщенности : 4:2:0
Битовая глубина : 8 бит
Тип развёртки : Прогрессивная
Бит/(Пиксели*Кадры) : 0.169
Размер потока : 5,02 Гбайт (75%)
Язык : English
Default : Да
Forced : Нет
Цветовой диапазон : Limited
Основные цвета : BT.709
Характеристики трансфера : BT.709
Коэффициенты матрицы : BT.709

Аудио #1
Идентификатор : 2
Формат : AC-3
Формат/Информация : Audio Coding 3
Параметр Endianness формата : Big
Идентификатор кодека : A_AC3
Продолжительность : 1 ч. 25 м.
Вид битрейта : Постоянный
Битрейт : 384 Кбит/сек
Каналы : 6 каналов
Расположение каналов : Front: L C R, Side: L R, LFE
Частота : 48,0 КГц
Частота кадров : 31,250 кадров/сек (1536 SPF)
Битовая глубина : 16 бит
Метод сжатия : С потерями
Размер потока : 235 Мбайт (3%)
Заголовок : дубляж
Язык : Russian
Default : Да
Forced : Нет

Аудио #2
Идентификатор : 3
Формат : DTS
Формат/Информация : Digital Theater Systems
Режим : 16
Параметр Endianness формата : Big
Идентификатор кодека : A_DTS
Продолжительность : 1 ч. 25 м.
Вид битрейта : Постоянный
Битрейт : 755 Кбит/сек
Каналы : 6 каналов
Расположение каналов : Front: L C R, Side: L R, LFE
Частота : 48,0 КГц
Частота кадров : 93,750 кадра/сек (512 SPF)
Битовая глубина : 24 бит
Метод сжатия : С потерями
Размер потока : 461 Мбайт (7%)
Заголовок : гланц и королёва
Язык : Russian
Default : Нет
Forced : Нет

Аудио #3
Идентификатор : 4
Формат : AC-3
Формат/Информация : Audio Coding 3
Параметр Endianness формата : Big
Идентификатор кодека : A_AC3
Продолжительность : 1 ч. 25 м.
Вид битрейта : Постоянный
Битрейт : 448 Кбит/сек
Каналы : 6 каналов
Расположение каналов : Front: L C R, Side: L R, LFE
Частота : 48,0 КГц
Частота кадров : 31,250 кадров/сек (1536 SPF)
Битовая глубина : 16 бит
Метод сжатия : С потерями
Размер потока : 274 Мбайт (4%)
Заголовок : tycoon
Язык : Russian
Default : Нет
Forced : Нет

Аудио #4
Идентификатор : 5
Формат : AC-3
Формат/Информация : Audio Coding 3
Параметр Endianness формата : Big
Идентификатор кодека : A_AC3
Продолжительность : 1 ч. 25 м.
Вид битрейта : Постоянный
Битрейт : 384 Кбит/сек
Каналы : 6 каналов
Расположение каналов : Front: L C R, Side: L R, LFE
Частота : 48,0 КГц
Частота кадров : 31,250 кадров/сек (1536 SPF)
Битовая глубина : 16 бит
Метод сжатия : С потерями
Размер потока : 235 Мбайт (3%)
Заголовок : антон карповский
Язык : Russian
Default : Нет
Forced : Нет

Аудио #5
Идентификатор : 6
Формат : AC-3
Формат/Информация : Audio Coding 3
Параметр Endianness формата : Big
Идентификатор кодека : A_AC3
Продолжительность : 1 ч. 25 м.
Вид битрейта : Постоянный
Битрейт : 448 Кбит/сек
Каналы : 6 каналов
Расположение каналов : Front: L C R, Side: L R, LFE
Частота : 48,0 КГц
Частота кадров : 31,250 кадров/сек (1536 SPF)
Битовая глубина : 16 бит
Метод сжатия : С потерями
Размер потока : 274 Мбайт (4%)
Язык : English
Default : Нет
Forced : Нет

Аудио #6
Идентификатор : 7
Формат : AC-3
Формат/Информация : Audio Coding 3
Параметр Endianness формата : Big
Идентификатор кодека : A_AC3
Продолжительность : 1 ч. 25 м.
Вид битрейта : Постоянный
Битрейт : 192 Кбит/сек
Каналы : 2 канала
Расположение каналов : Front: L R
Частота : 48,0 КГц
Частота кадров : 31,250 кадров/сек (1536 SPF)
Битовая глубина : 16 бит
Метод сжатия : С потерями
Размер потока : 117 Мбайт (2%)
Заголовок : commentary by the filmmakers, including director wes craven
Язык : English
Default : Нет
Forced : Нет

Текст #1
Идентификатор : 8
Формат : UTF-8
Идентификатор кодека : S_TEXT/UTF8
Идентификатор кодека/Информация : UTF-8 Plain Text
Язык : Russian
Default : Да
Forced : Нет

Текст #2
Идентификатор : 9
Формат : UTF-8
Идентификатор кодека : S_TEXT/UTF8
Идентификатор кодека/Информация : UTF-8 Plain Text
Язык : English
Default : Нет
Forced : Нет

Меню
00:00:00.000 : A Rough Morning
00:06:32.505 : Flight Delayed
00:15:52.113 : Now Boarding
00:19:40.116 : "Management"
00:26:24.914 : "Rough Day"
00:30:12.175 : Calling Dad
00:37:50.005 : Being Watched
00:42:32.559 : "One of Those Flights"
00:46:50.378 : The Fatal Call
00:50:24.636 : Keefe's Arrival
00:55:17.389 : "Welcome to Miami"
01:00:29.294 : Keefe's a Target!
01:04:13.700 : Not In My House
01:08:25.963 : Finishing the Job
01:15:08.676 : Comment Card
01:16:47.884 : End Credits



Скачать Ночной.рейс.Red.Eye.(Уэс.Крэйвен).[2005.триллер.боевик.WEB-DL].[1080p].[Dub]+[MVO]+[DVO]+[AVO]+[Оригинал.Eng]+[Commentary.Eng]+[Sub.Rus.Eng]x2.torrent без регистрации
Золото ЗОЛОТАЯ РАЗДАЧА! СКАЧАННОЕ НЕ ЗАСЧИТЫВАЕТСЯ! Золото
Дата: Зарегистрирован   [ Тип: внутренний ] Как тут cкачать?
MAGNET ссылка
MAGNET ссылка


Скачать .torrent

34 KB

Статус: проверено DHT
Скачан: торрент - 17 раз, раздача полностью - 4 раз
Размер: 6,72 GB
Оценка:  5 (Голосов: 1)
Поблагодарили: 1
Поделиться ссылкой на эту раздачу с друзьями:
В контактеFacebookОдноклассникиTwitterLivejournalМой МирLiveinternet
 

 
Показать сообщения:    


Вы не можете начинать темы
Вы не можете отвечать на сообщения
Вы не можете редактировать свои сообщения
Вы не можете удалять свои сообщения
Вы не можете голосовать в опросах
Вы не можете прикреплять файлы к сообщениям
Вы можете скачивать файлы