Loading...
Error

Скачать Бетховен 3 / Beethoven's 3rd (Дэвид М. Эванс) [2000, комедия, семейный, WEB-DL] [1080p] [MVO]x2+[DVO]x2+[Eng]+[Sub Rus, Eng]x2 торрент без регистрации

Статистика раздачи
Размер:  9,28 GB   |    Скачан:  9 раз
Сидов:  1  [  0 KB/s  ]  
 
 
 
Автор Сообщение

Marsianka

[] 

Название: Бетховен 3
Оригинальное название: Beethoven's 3rd
Год выхода: 2000
Страна: США
Студия: Universal Family and Home Entertainment, Ludwig Productions, Universal Studios
Продолжительность: 01:38:15
Жанр: комедия, семейный

Режиссер: Дэвид М. Эванс
В ролях: Джадж Райнхолд, Джулия Суини, Джо Пихлер, Михаэлла Галло, Майк Чикколини, Джеймс Марш, Даниэла Китон, Фрэнк Горшин, Холли Митчелл, Марк Карлтон, ...

О фильме: В третьей части приключений знаменитого сенбернара забавный «песик» отправляется в головокружительное путешествие. Для главы семьи Ньютонов, Ричарда, долгая поездка к родственникам — увлекательнейшее занятие. Для его шумной семьи — утомительное, невыносимо скучное мероприятие.
Однако все разительным образом меняется, когда «на борту» обнаруживается новый лохматый пассажир с печальными глазами. Им, как ни странно, оказывается наш старый друг Бетховен, который, не прочь «прошвырнуться» по стране и посмотреть мир…



Кодек: MPEG4/ISO/AVC
Качество: WEB-DL 1080p / AMZN
Видео: 1920x1080, 11800 kbps, 23,976 fps

- Профессиональный (многоголосый, закадровый) DVD от «Юниверсал Пикчерс Рус»
- Профессиональный (многоголосый, закадровый) Первый канал
- Профессиональный (двуголосый, закадровый) Премьер Видео Фильм
- Профессиональный (двуголосый, закадровый) СТС
- Субтитры
Аудио #1: AC-3, 2 ch, 192 kbps (Rus) - MVO DVD «Юниверсал Пикчерс Рус»
Аудио #2: AC-3, 2 ch, 192 kbps (Rus) - MVO Первый канал (VHSRip-ТВ)
Аудио #3: AC-3, 2 ch, 192 kbps (Rus) - DVO Премьер Видео Фильм (VHSRip)
Аудио #4: AC-3, 2 ch, 192 kbps (Rus) - DVO СТС (SATRip)
Аудио #5: AC-3, 6 ch, 640 kbps (Eng)
Субтитры: русские, английские
Общее
Уникальный идентификатор : 222627563649377592269671444643852696752 (0xA77C8256339850678C414F955241BCB0)
Полное имя : Бетховен 3 (Beethoven's 3rd) 2000 WEB-DL 1080p.mkv
Формат : Matroska
Версия формата : Version 2
Размер файла : 9,28 Гбайт
Продолжительность : 1 ч. 38 м.
Режим общего битрейта : Переменный
Общий поток : 13,5 Мбит/сек
Дата кодирования : UTC 2017-11-10 08:14:36
Программа кодирования : mkvmerge v4.0.0 ('The Stars were mine') сборка от Jun 6 2010 16:18:42
Библиотека кодирования : libebml v1.0.0 + libmatroska v1.0.0

Видео
Идентификатор : 1
Формат : AVC
Формат/Информация : Advanced Video Codec
Профиль формата : High@L4
Параметр CABAC формата : Да
Параметр ReFrames формата : 4 кадра
Идентификатор кодека : V_MPEG4/ISO/AVC
Продолжительность : 1 ч. 38 м.
Вид битрейта : Переменный
Битрейт : 11,8 Мбит/сек
Максимальный битрейт : 15,0 Мбит/сек
Ширина : 1920 пикселей
Высота : 1080 пикселей
Соотношение сторон : 16:9
Режим частоты кадров : Постоянный
Частота кадров : 23,976 (24000/1001) кадра/сек
Цветовое пространство : YUV
Субдискретизация насыщенности : 4:2:0
Битовая глубина : 8 бит
Тип развёртки : Прогрессивная
Бит/(Пиксели*Кадры) : 0.238
Размер потока : 8,13 Гбайт (88%)
Язык : English
Default : Нет
Forced : Нет
Цветовой диапазон : Limited
Основные цвета : BT.709
Характеристики трансфера : BT.709
Коэффициенты матрицы : BT.709

Аудио #1
Идентификатор : 2
Формат : AC-3
Формат/Информация : Audio Coding 3
Расширение режима : CM (complete main)
Параметр Endianness формата : Big
Идентификатор кодека : A_AC3
Продолжительность : 1 ч. 38 м.
Вид битрейта : Постоянный
Битрейт : 192 Кбит/сек
Каналы : 2 канала
Расположение каналов : Front: L R
Частота : 48,0 КГц
Частота кадров : 31,250 кадров/сек (1536 spf)
Метод сжатия : С потерями
Размер потока : 135 Мбайт (1%)
Заголовок : MVO DVD «Юниверсал Пикчерс Рус»
Язык : Russian
Default : Нет
Forced : Нет

Аудио #2
Идентификатор : 3
Формат : AC-3
Формат/Информация : Audio Coding 3
Расширение режима : CM (complete main)
Параметр Endianness формата : Big
Идентификатор кодека : A_AC3
Продолжительность : 1 ч. 38 м.
Вид битрейта : Постоянный
Битрейт : 192 Кбит/сек
Каналы : 2 канала
Расположение каналов : Front: L R
Частота : 48,0 КГц
Частота кадров : 31,250 кадров/сек (1536 spf)
Метод сжатия : С потерями
Размер потока : 135 Мбайт (1%)
Заголовок : MVO Первый канал (VHSRip-ТВ)
Язык : Russian
Default : Нет
Forced : Нет

Аудио #3
Идентификатор : 4
Формат : AC-3
Формат/Информация : Audio Coding 3
Расширение режима : CM (complete main)
Параметр Endianness формата : Big
Идентификатор кодека : A_AC3
Продолжительность : 1 ч. 38 м.
Вид битрейта : Постоянный
Битрейт : 192 Кбит/сек
Каналы : 2 канала
Расположение каналов : Front: L R
Частота : 48,0 КГц
Частота кадров : 31,250 кадров/сек (1536 spf)
Метод сжатия : С потерями
Размер потока : 135 Мбайт (1%)
Заголовок : DVO Премьер Видео Фильм (VHSRip)
Язык : Russian
Default : Нет
Forced : Нет

Аудио #4
Идентификатор : 5
Формат : AC-3
Формат/Информация : Audio Coding 3
Расширение режима : CM (complete main)
Параметр Endianness формата : Big
Идентификатор кодека : A_AC3
Продолжительность : 1 ч. 38 м.
Вид битрейта : Постоянный
Битрейт : 192 Кбит/сек
Каналы : 2 канала
Расположение каналов : Front: L R
Частота : 48,0 КГц
Частота кадров : 31,250 кадров/сек (1536 spf)
Метод сжатия : С потерями
Размер потока : 135 Мбайт (1%)
Заголовок : DVO СТС (SATRip)
Язык : Russian
Default : Нет
Forced : Нет

Аудио #5
Идентификатор : 6
Формат : AC-3
Формат/Информация : Audio Coding 3
Расширение режима : CM (complete main)
Параметр Endianness формата : Big
Идентификатор кодека : A_AC3
Продолжительность : 1 ч. 38 м.
Вид битрейта : Постоянный
Битрейт : 640 Кбит/сек
Каналы : 6 каналов
Расположение каналов : Front: L C R, Side: L R, LFE
Частота : 48,0 КГц
Частота кадров : 31,250 кадров/сек (1536 spf)
Метод сжатия : С потерями
Размер потока : 450 Мбайт (5%)
Язык : English
Default : Нет
Forced : Нет

Текст #1
Идентификатор : 7
Формат : UTF-8
Идентификатор кодека : S_TEXT/UTF8
Идентификатор кодека/Информация : UTF-8 Plain Text
Язык : Russian
Default : Нет
Forced : Нет

Текст #2
Идентификатор : 8
Формат : UTF-8
Идентификатор кодека : S_TEXT/UTF8
Идентификатор кодека/Информация : UTF-8 Plain Text
Заголовок : SDH
Язык : English
Default : Нет
Forced : Нет



Скачать Бетховен.3.Beethoven's.3rd.(Дэвид.М.Эванс).[2000.комедия.семейный.WEB-DL].[1080p].[MVO]x2+[DVO]x2+[Eng]+[Sub.Rus.Eng]x2.torrent без регистрации
Золото ЗОЛОТАЯ РАЗДАЧА! СКАЧАННОЕ НЕ ЗАСЧИТЫВАЕТСЯ! Золото
Дата: Зарегистрирован   [ Тип: внутренний ] Как тут cкачать?
MAGNET ссылка
MAGNET ссылка


Скачать .torrent

47 KB

Статус: проверено DHT
Скачан: торрент - 9 раз, раздача полностью - 0 раз
Размер: 9,28 GB
Оценка:  - (Голосов: 0)
Поблагодарили: 0
Поделиться ссылкой на эту раздачу с друзьями:
В контактеFacebookОдноклассникиTwitterLivejournalМой МирLiveinternet
 

 
Показать сообщения:    


Вы не можете начинать темы
Вы не можете отвечать на сообщения
Вы не можете редактировать свои сообщения
Вы не можете удалять свои сообщения
Вы не можете голосовать в опросах
Вы не можете прикреплять файлы к сообщениям
Вы можете скачивать файлы