Loading...
Error

Скачать Ветреная река / Wind River (Тейлор Шеридан) [2017, Боевик, триллер, криминал, детектив, BDRip][1080p] [Dub Лицензия] [R.G. GoldenShara] торрент без регистрации

Статистика раздачи
Размер:  4,35 GB   |    Скачан:  79 раз
Сидов:  2  [  0 KB/s  ]  
 
 
 
Автор Сообщение

Magnetto83

[] 


Ветреная река / Wind River


Год выпуска: 2017
Выпущено: Великобритания, Канада, США
Студии: Acacia Filmed Entertainment, Film 44, Ingenious Media, Savvy Media Holdings, Star Thrower Entertainment
Жанр: Боевик, триллер, криминал, детектив
Продолжительность: 01:46:47
Перевод: Профессиональный (полное дублирование) | Blu-ray RUS |
Субтитры: Русские (Полные), Английские (Full)
Навигация по главам: Сохранены оригинальные главы как на Blu-ray

Слоган: «Нет ничего сложнее, чем выйти на след правды»

Режиссер: Тейлор Шеридан

В ролях: Джереми Реннер, Элизабет Олсен, Джон Бернтал, Келси Чоу, Джулия Джонс, Тео Брионес, Апесанахкват, Грэм Грин, Танту Кардинал, Эрик Ланж, Джил Бирмингем

Описание: Край, где водятся волки и пумы, а морозные, ослепительно-солнечные дни сменяются метелью. Кори Ламберт - профессиональный охотник, приехал в индейскую резервацию «Ветреная река», чтобы провести несколько дней в обществе сына. Неподалёку от резервации, Кори, идущий по следу пумы на снегоходе,находит труп местной девушки, которая была жестоко изнасилована и избита. Когда спустя несколько дней прибывшая для расследования убийств агент ФБР Джейн Брэннер осознаёт, что в одиночку ей не справиться, она обращается за помощью к Кори, знающему население резервации, как свои пять пальцев. Он соглашается, совершенно не представляя, как далеко может завести их совместное расследование!



Возраст: 18+ (зрителям, достигшим 18 лет. запрещено для детей)
Рейтинг MPAA: R (лицам до 17 лет обязательно присутствие взрослого)

Качество: BDRip 1080p
Формат: MKV
Видео кодек: H.264
Аудио кодек: AC3
Видео: 1920x804 (2.40:1), 5405 Кбит/с, 23.976 fps
Аудио: Русский Dolby Digital 5.1 (448 Кбит/с)


x264 [info]: frame I:1022 Avg QP:17.53 size:134804
x264 [info]: frame P:31252 Avg QP:19.82 size: 50291
x264 [info]: frame B:121343 Avg QP:21.73 size: 21442
x264 [info]: consecutive B-frames: 1.7% 2.4% 9.2% 10.8% 10.8% 50.0% 4.4% 2.2% 8.4%
x264 [total]: encoded 153617 frames, 1.27 fps, 5383.09 kb/s



General
Complete name : G:\Видео\Мои Рипы 1080p\Кино-Хиты 2017\Ветренная река 2017 Dub Rus BDRip 1080p.mkv
Format : Matroska
Format version : Version 4 / Version 2
File size : 4.35 GiB
Duration : 1h 46mn
Overall bit rate : 5 833 Kbps
Movie name : Ветренная река 2017 Dub Rus BDRip 1080p By R.G. GoldenShara
Encoded date : UTC 2018-03-18 23:30:56
Writing application : mkvmerge v7.0.0 ('Where We Going') 64bit built on Jun 9 2014 15:16:27
Writing library : libebml v1.3.0 + libmatroska v1.4.1
Attachements : Cover.jpg
DURATION : 01:46:47.008000000
NUMBER_OF_FRAMES : 200219
NUMBER_OF_BYTES : 358792448
_STATISTICS_WRITING_APP : mkvmerge v7.0.0 ('Where We Going') 64bit built on Jun 9 2014 15:16:27
_STATISTICS_WRITING_DATE_UTC : 2018-03-18 23:30:56
_STATISTICS_TAGS : BPS DURATION NUMBER_OF_FRAMES NUMBER_OF_BYTES

Video
ID : 1
Format : AVC
Format/Info : Advanced Video Codec
Format profile : High@L4.1
Format settings, CABAC : Yes
Format settings, ReFrames : 5 frames
Codec ID : V_MPEG4/ISO/AVC
Duration : 1h 46mn
Bit rate : 5 405 Kbps
Width : 1 920 pixels
Height : 804 pixels
Display aspect ratio : 2.40:1
Frame rate mode : Constant
Frame rate : 23.976 fps
Color space : YUV
Chroma subsampling : 4:2:0
Bit depth : 8 bits
Scan type : Progressive
Bits/(Pixel*Frame) : 0.146
Stream size : 3.93 GiB (90%)
Title : Ветренная река 2017 BDRip 1080p By Magnetto 83
Writing library : x264 core 146 r2538 121396c
Encoding settings : cabac=1 / ref=5 / deblock=1:-1:-1 / analyse=0x3:0x113 / me=umh / subme=10 / psy=1 / psy_rd=1.00:0.00 / mixed_ref=1 / me_range=32 / chroma_me=1 / trellis=2 / 8x8dct=1 / cqm=0 / deadzone=21,11 / fast_pskip=0 / chroma_qp_offset=-2 / threads=3 / lookahead_threads=1 / sliced_threads=0 / nr=0 / decimate=1 / interlaced=0 / bluray_compat=0 / constrained_intra=0 / bframes=8 / b_pyramid=2 / b_adapt=2 / b_bias=0 / direct=3 / weightb=1 / open_gop=0 / weightp=2 / keyint=250 / keyint_min=23 / scenecut=40 / intra_refresh=0 / rc=2pass / mbtree=0 / bitrate=5405 / ratetol=1.0 / qcomp=0.60 / qpmin=0 / qpmax=69 / qpstep=4 / cplxblur=20.0 / qblur=0.5 / ip_ratio=1.40 / pb_ratio=1.30 / aq=2:1.00
Language : English
Default : Yes
Forced : No

Audio
ID : 2
Format : AC-3
Format/Info : Audio Coding 3
Mode extension : CM (complete main)
Format settings, Endianness : Big
Codec ID : A_AC3
Duration : 1h 46mn
Bit rate mode : Constant
Bit rate : 448 Kbps
Channel(s) : 6 channels
Channel positions : Front: L C R, Side: L R, LFE
Sampling rate : 48.0 KHz
Compression mode : Lossy
Stream size : 342 MiB (8%)
Title : DD 5.1 @ 448 kbps - Дубляж | Blu-ray RUS |
Language : Russian
Default : Yes
Forced : No

Text #1
ID : 3
Format : UTF-8
Codec ID : S_TEXT/UTF8
Codec ID/Info : UTF-8 Plain Text
Title : Полные
Language : Russian
Default : No
Forced : No

Text #2
ID : 4
Format : UTF-8
Codec ID : S_TEXT/UTF8
Codec ID/Info : UTF-8 Plain Text
Title : Full
Language : English
Default : No
Forced : No

Menu
00:00:00.000 : en:00:00:00.000
00:06:01.695 : en:00:06:01.695
00:10:42.433 : en:00:10:42.433
00:14:55.394 : en:00:14:55.394
00:19:18.741 : en:00:19:18.741
00:25:52.342 : en:00:25:52.342
00:32:02.921 : en:00:32:02.921
00:37:13.481 : en:00:37:13.481
00:43:34.529 : en:00:43:34.529
00:52:17.259 : en:00:52:17.259
01:00:22.536 : en:01:00:22.536
01:07:09.484 : en:01:07:09.484
01:10:57.920 : en:01:10:57.920
01:18:39.590 : en:01:18:39.590
01:23:46.104 : en:01:23:46.104
01:31:00.538 : en:01:31:00.538
01:36:46.592 : en:01:36:46.592
01:39:41.642 : en:01:39:41.642







Скачать Ветреная.река.Wind.River.(Тейлор.Шеридан).[2017.Боевик.триллер.криминал.детектив.BDRip][1080p].[Dub.Лицензия].[R.G.GoldenShara].torrent без регистрации
Золото ЗОЛОТАЯ РАЗДАЧА! СКАЧАННОЕ НЕ ЗАСЧИТЫВАЕТСЯ! Золото
Дата: Зарегистрирован   [ Тип: внутренний ] Как тут cкачать?
MAGNET ссылка
MAGNET ссылка


Скачать .torrent

11 KB

Статус: проверено
Скачан: торрент - 79 раз, раздача полностью - 102 раз
Размер: 4,35 GB
Оценка:  5 (Голосов: 7)
Поблагодарили: 11
Поделиться ссылкой на эту раздачу с друзьями:
В контактеFacebookОдноклассникиTwitterLivejournalМой МирLiveinternet
 

 

копылов геннадий николаев

[] 

Спасибо друг!За отличный фильм и качество!!! az
 

Magnetto83

[] 

bs Пожалуйста!!! az
 

Magnetto83

[] 

ab Обновлено! Звук заменён на лицензию с Blu-ray RUS ad
 
Показать сообщения:    


Вы не можете начинать темы
Вы не можете отвечать на сообщения
Вы не можете редактировать свои сообщения
Вы не можете удалять свои сообщения
Вы не можете голосовать в опросах
Вы не можете прикреплять файлы к сообщениям
Вы можете скачивать файлы