Loading...
Error

Скачать Ванька (Эдуард Бочаров) [1959, драма, семейный, короткометражка, HDTVRip] [1080p] торрент без регистрации

Статистика раздачи
Размер:  1,09 GB   |    Скачан:  27 раз
Сидов:  1  [  0 KB/s  ]  
 
 
 
Автор Сообщение

Marsianka

[] 

Информация о фильме
Название: Ванька
Год выхода: 1959
Жанр: драма, семейный, короткометражка
Режиссер: Эдуард Бочаров
В ролях: Саша Барсов, Николай Никитич, Николай Плотников, Нонна Мордюкова, Петр Алейников, Владимир Борискин, Георгий Бударов, Алевтина Румянцева, Николай Сморчков, Ксения Козьмина

О фильме:
После смерти матери Ваньку отдали в ученье к сапожнику Аляхину. Нелегко ему живётся у хозяина. Ваньку заставляют няньчить ребёнка, а когда, случалось, он засыпал у люльки, его жестоко избивали. Били Ваньку за то, что начинал чистить селёдку с головы, били просто так... Мастеровые посылают Ваньку за водкой, заставляют красть у хозяина огурцы, издеваются над ним. Однажды, когда хозяева ушли в церковь, Ванька сел писать письмо дедушке о своём горьком житье-бытье...

По одноимённому рассказу А.П.Чехова.



Производство: СССР / к/ст им. М.Горького
Продолжительность: 00:30:18
Перевод: оригинал

Файл
Качество: HDTVRip 1080p
Формат: MKV
Видео: MPEG-4 AVC, 1440x1080 (4:3), 25.000 fps, 4606 kbps, 0.118 bit/pixel
Аудио: русский, AC3 5.1, 48 kHz, 448 kbps
Формат : Matroska
Версия формата : Version 2
Размер файла : 1,09 Гбайт
Продолжительность : 30 м.
Режим общего битрейта : Переменный
Общий поток : 5156 Кбит/сек
Программа кодирования : Lavf54.63.104
Библиотека кодирования : Lavf54.63.104

Видео
Идентификатор : 1
Формат : AVC
Формат/Информация : Advanced Video Codec
Профиль формата : High@L4.1
Параметр CABAC формата : Да
Параметр ReFrames формата : 3 кадра
Идентификатор кодека : V_MPEG4/ISO/AVC
Продолжительность : 30 м.
Вид битрейта : Переменный
Битрейт : 4606 Кбит/сек
Максимальный битрейт : 19,2 Мбит/сек
Ширина : 1440 пикселей
Высота : 1080 пикселей
Соотношение сторон : 4:3
Режим частоты кадров : Постоянный
Частота кадров : 25,000 кадров/сек
Стандарт вещания : PAL
Цветовое пространство : YUV
Субдискретизация насыщенности : 4:2:0
Битовая глубина : 8 бит
Тип развёртки : Прогрессивная
Бит/(Пиксели*Кадры) : 0.118
Размер потока : 998 Мбайт (89%)
Default : Нет
Forced : Нет
Цветовой диапазон : Limited
Основные цвета : BT.709
Характеристики трансфера : BT.709
Коэффициенты матрицы : BT.709

Аудио
Идентификатор : 2
Формат : AC-3
Формат/Информация : Audio Coding 3
Расширение режима : CM (complete main)
Параметр Endianness формата : Big
Идентификатор кодека : A_AC3
Продолжительность : 30 м.
Вид битрейта : Постоянный
Битрейт : 448 Кбит/сек
Каналы : 6 каналов
Расположение каналов : Front: L C R, Side: L R, LFE
Частота : 48,0 КГц
Метод сжатия : С потерями
Размер потока : 97,1 Мбайт (9%)
Язык : Russian
Default : Да
Forced : Нет



Скачать Ванька.(Эдуард.Бочаров).[1959.драма.семейный.короткометражка.HDTVRip].[1080p].torrent без регистрации
Золото ЗОЛОТАЯ РАЗДАЧА! СКАЧАННОЕ НЕ ЗАСЧИТЫВАЕТСЯ! Золото
Дата: Зарегистрирован   [ Тип: внутренний ] Как тут cкачать?
MAGNET ссылка
MAGNET ссылка


Скачать .torrent

12 KB

Статус: проверено DHT
Скачан: торрент - 27 раз, раздача полностью - 4 раз
Размер: 1,09 GB
Оценка:  - (Голосов: 0)
Поблагодарили: 0
Поделиться ссылкой на эту раздачу с друзьями:
В контактеFacebookОдноклассникиTwitterLivejournalМой МирLiveinternet
 

 
Показать сообщения:    


Вы не можете начинать темы
Вы не можете отвечать на сообщения
Вы не можете редактировать свои сообщения
Вы не можете удалять свои сообщения
Вы не можете голосовать в опросах
Вы не можете прикреплять файлы к сообщениям
Вы можете скачивать файлы