Loading...
Error

Скачать Полосатый рейс (Владимир Фетин) [1961, комедия, приключения, семейный, BDRip] [720p] торрент без регистрации

Статистика раздачи
Размер:  4,35 GB   |    Скачан:  26 раз
Сидов:  1  [  0 KB/s  ]  
 
 
 
Автор Сообщение

Marsianka

[] 



Информация о фильме
Оригинальное название: Полосатый рейс
Год выхода: 1961
Жанр: комедия, приключения, семейный
Режиссер: Владимир Фетин
В ролях: Алексей Грибов, Иван Дмитриев, Маргарита Назарова, Евгений Леонов, Владимир Белокуров, Николай Волков, Александр Бениаминов, Аркадий Трусов, Алексей Смирнов, Алексей Кожевников, Галина Короткевич, Владимир Трошин, Ефим Копелян

О фильме:
На пароходе "Евгений Онегин", следующем по маршруту Цейлон - Одесса, перевозится живой груз - тигры и львы для зоопарка. Сопровождающее лицо - товарищ Шулейкин - на самом деле до смерти боится полосатых пассажиров, потому что по профессии он не дрессировщик, а повар. И так случилось, что проказница-обезьянка, выпустила хищников из клеток...



Выпущено: СССР
Продолжительность: 01:27:07
Перевод: Оригинал

Файл
Кодек: x264
Качество: BDRip 720p
Видео: 1280x720, ~6700 Kbps, 23.976 fps
Аудио: 48 kHz, AC3 Dolby Digital, 3/2 (L,C,R,l,r) + LFE ch, ~448.00 kbps

General
Unique ID : 181503582284105001073198585538210207296 (0x888C51838B3ED63556F5D60B31B09640)
Complete name : F:FILMSПолосатый рейс_1961_BLU-RAY_720p_[-=DoMino=-].mkv
Format : Matroska
Format version : Version 4 / Version 2
File size : 4.35 GiB
Duration : 1 h 27 min
Overall bit rate : 7 151 kb/s
Movie name : Полосатый рейс
Deion : На пароходе "Евгений Онегин", следующем по маршруту Цейлон - Одесса, перевозится живой груз - тигры и львы для зоопарка. Сопровождающее лицо - товарищ Шулейкин - на самом деле до смерти боится полосатых пассажиров, потому что по профессии он не дрессировщик, а повар. И так случилось, что проказница-обезьянка, выпустила хищников из клеток...
Writing application : XviD4PSP 7.0.419 DAILY
Writing library : Lavf57.71.100
ErrorDetectionType : Per level 1
Attachments : poster.jpg
ACTORS : Алексей Грибов, Иван Дмитриев, Маргарита Назарова, Евгений Леонов, Владимир Белокуров, Николай Волков, Александр Бениаминов, Аркадий Трусов, Алексей Смирнов, Алексей Кожевников, П. Алябин, Алиса Фрейндлих, В. Хозин, Олег Хроменков, Василий Лановой, Геннадий Ложкин, А. Прокопенко, А. Рудин, Александр Суснин, Николай Трофимов, В. Туркин, О. Жуков, Юрий Горобец, Вячеслав Сирин, Владимир Граве, Константин Константиновский, Лидия Доротенко, Михаил Васильев, Олег Белов, Герман Лупекин, Виктор Плотников
COMPOSER : Вениамин Баснер
COUNTRY : СССР
DATE : 1961
DIRECTOR : Владимир Фетин
ENCODING_INFO : MATROSKA,WEBM > MKV 720p / H264 > X264 VBR-2P 6700kbps Произвольный / AC3 > COPY Безопасное
GENRE : комедия, приключения, семейный
HD_VIDEO : 1
IMDB_RATING : 7.50
ITUNEXTC : ru-movie|12+|200|
Language : und
MEDIA_TYPE : 9
PRODUCER : Владимир Беспрозванный
RATING : 7.978
WRITER : Алексей Каплер, Виктор Конецкий

Video
ID : 1
Format : AVC
Format/Info : Advanced Video Codec
Format profile : High@L4.1
Format settings : CABAC / 9 Ref Frames
Format settings, CABAC : Yes
Format settings, ReFrames : 9 frames
Codec ID : V_MPEG4/ISO/AVC
Duration : 1 h 27 min
Bit rate : 6 700 kb/s
Width : 1 280 pixels
Height : 720 pixels
Display aspect ratio : 16:9
Frame rate mode : Constant
Frame rate : 23.976 (24000/1001) FPS
Color space : YUV
Chroma subsampling : 4:2:0
Bit depth : 8 bits
Scan type : Progressive
Bits/(Pixel*Frame) : 0.303
Stream size : 3.99 GiB (92%)
Title : BLU-RAY_720p_RIP_BY_-=DoMiNo=-
Writing library : x264 core 152 r2851M ba24899
Encoding settings : cabac=1 / ref=9 / deblock=1:-3:-3 / analyse=0x3:0x133 / me=umh / subme=11 / psy=1 / psy_rd=1.05:0.15 / mixed_ref=1 / me_range=48 / chroma_me=1 / trellis=2 / 8x8dct=1 / cqm=0 / deadzone=21,11 / fast_pskip=0 / chroma_qp_offset=-3 / threads=5 / lookahead_threads=1 / sliced_threads=0 / nr=0 / decimate=1 / interlaced=0 / bluray_compat=0 / constrained_intra=0 / bframes=12 / b_pyramid=2 / b_adapt=2 / b_bias=0 / direct=3 / weightb=1 / open_gop=0 / weightp=2 / keyint=240 / keyint_min=24 / scenecut=40 / intra_refresh=0 / rc=2pass / mbtree=0 / bitrate=6700 / ratetol=1.0 / qcomp=0.65 / qpmin=0 / qpmax=69 / qpstep=4 / cplxblur=20.0 / qblur=0.5 / ip_ratio=1.40 / pb_ratio=1.30 / aq=1:1.00
Default : Yes
Forced : No
Color range : Limited
Color primaries : BT.709
Transfer characteristics : BT.709
Matrix coefficients : BT.709

Audio
ID : 2
Format : AC-3
Format/Info : Audio Coding 3
Codec ID : A_AC3
Duration : 1 h 27 min
Bit rate mode : Constant
Bit rate : 448 kb/s
Channel(s) : 6 channels
Channel positions : Front: L C R, Side: L R, LFE
Sampling rate : 48.0 kHz
Frame rate : 31.250 FPS (1536 SPF)
Bit depth : 16 bits
Compression mode : Lossy
Stream size : 279 MiB (6%)
Title : AC-3_448_kb/s
Language : Russian
Service kind : Complete Main
Default : Yes
Forced : No





Скачать Полосатый.рейс.(Владимир.Фетин).[1961.комедия.приключения.семейный.BDRip].[720p].torrent без регистрации
Золото ЗОЛОТАЯ РАЗДАЧА! СКАЧАННОЕ НЕ ЗАСЧИТЫВАЕТСЯ! Золото
Дата: Зарегистрирован   [ Тип: внутренний ] Как тут cкачать?
MAGNET ссылка
MAGNET ссылка


Скачать .torrent

12 KB

Статус: проверено DHT
Скачан: торрент - 26 раз, раздача полностью - 1 раз
Размер: 4,35 GB
Оценка:  5 (Голосов: 1)
Поблагодарили: 0
Поделиться ссылкой на эту раздачу с друзьями:
В контактеFacebookОдноклассникиTwitterLivejournalМой МирLiveinternet
 

 
Показать сообщения:    


Вы не можете начинать темы
Вы не можете отвечать на сообщения
Вы не можете редактировать свои сообщения
Вы не можете удалять свои сообщения
Вы не можете голосовать в опросах
Вы не можете прикреплять файлы к сообщениям
Вы можете скачивать файлы