Loading...
Error

Скачать Пианистка / La Pianiste (Михаэль Ханеке) [2001, драма, мелодрама, музыка, BDRemux] [1080р] [MVO (Амальгама)]+[Оригинал (Fre)]+[Sub Rus, Eng]x2 торрент без регистрации

Статистика раздачи
Размер:  32,62 GB   |    Скачан:  13 раз
Сидов:  1  [  0 KB/s  ]  
 
 
 
Автор Сообщение

Marsianka

[] 

Информация о фильме
Название: Пианистка
Оригинальное название: La Pianiste
Год выхода: 2001
Жанр: драма, мелодрама, музыка
Режиссер: Михаэль Ханеке
В ролях: Изабель Юппер, Анни Жирардо, Бенуа Мажимель, Сюзанна Лотар, Удо Замель, Анна Сигалевич, Корнелия Конгден, Томас Вайнхаппель, Георг Фридрих, Филипп Хайсс, Уильям Манг, Рудольф Мелихар, Михаэль Шоттенберг, Габриэль Шухтер, Дитер Бернер

Описание: Главная героиня Эрика — профессор Венской консерватории. Она учит молодежь дивной музыке Шуберта, сама же, будучи монстром современной цивилизации, страшно далека от гармонии небесных сфер.

Она по-детски делит ложе со старой мегерой-мамашей, лишена всякого подобия личной жизни, после занятий тайно посещает порномагазины и под кроватью держит набор садомазохистских инструментов. Когда же в нее влюбляется один из ее учеников, она шокирует и его, и зрителя совершенно дикими реакциями на юношеское чувство.



Страна: Австрия, Франция, Германия
Продолжительность: 02:11:03
Профессиональный (многоголосый закадровый) Амальгама
Субтитры: русские, английские (eng)
Оригинальная аудиодорожка: французский
Файл
Качество: BDRemux 1080р
Видео: AVC / 1920x1080 / 16:9 / 23.976 fps / 31000 Kbps / High@L4.1
Аудио 1: Rus / AC3 / 48.0 KHz / 5.1 / 640 kbps / MVO / Амальгама
Аудио 2: Fre / DTS-HD MA / 48.0 KHz / 5.1 / 3840kbps / 24 bit (DTS Core 48.0 KHz / 5.1 / 1509 kbps / 24 bit)
Аудио 3: Rus / AC3 / 48.0 KHz / 2.0 / Комментарии
Общее
Уникальный идентификатор : 210426470954787937603479368455984478865 (0x9E4EAA05C1F95F5D825718CD4AA77A91)
Полное имя : E:porvaliparusThe.Piano.Teacher.2001.Criterion.Collection.BDRemux.1080p.mkv
Формат : Matroska
Версия формата : Version 4 / Version 2
Размер файла : 32,6 Гбайт
Продолжительность : 2 ч. 11 м.
Режим общего битрейта : Переменный
Общий поток : 35,6 Мбит/сек
Название фильма : The.Piano.Teacher.2001.Criterion.Collection.BDRemux.1080p-porvaliparus
Дата кодирования : UTC 2017-10-23 04:47:16
Программа кодирования : mkvmerge v17.0.0 ('Be Ur Friend') 64-bit
Библиотека кодирования : libebml v1.3.5 + libmatroska v1.4.8

Видео
Идентификатор : 1
Формат : AVC
Формат/Информация : Advanced Video Codec
Профиль формата : High@L4.1
Настройки формата : CABAC / 4 Ref Frames
Параметр CABAC формата : Да
Параметр RefFrames формата : 4 кадра
Идентификатор кодека : V_MPEG4/ISO/AVC
Продолжительность : 2 ч. 11 м.
Вид битрейта : Переменный
Битрейт : 31,0 Мбит/сек
Максимальный битрейт : 37,0 Мбит/сек
Ширина : 1920 пикселей
Высота : 1080 пикселей
Соотношение сторон : 16:9
Режим частоты кадров : Постоянный
Частота кадров : 23,976 (24000/1001) кадра/сек
Цветовое пространство : YUV
Субдискретизация насыщенности : 4:2:0
Битовая глубина : 8 бит
Тип развёртки : Прогрессивная
Бит/(Пиксели*Кадры) : 0.624
Размер потока : 28,4 Гбайт (87%)
Заголовок : The.Piano.Teacher.2001.Criterion.Collection.BDRemux.1080p
Default : Да
Forced : Нет

Аудио #1
Идентификатор : 2
Формат : AC-3
Формат/Информация : Audio Coding 3
Параметр Endianness формата : Big
Идентификатор кодека : A_AC3
Продолжительность : 2 ч. 8 м.
Вид битрейта : Постоянный
Битрейт : 640 Кбит/сек
Каналы : 6 каналов
Расположение каналов : Front: L C R, Side: L R, LFE
Частота : 48,0 КГц
Частота кадров : 31,250 кадров/сек (1536 SPF)
Битовая глубина : 16 бит
Метод сжатия : С потерями
Размер потока : 590 Мбайт (2%)
Заголовок : MVO [Амальгама]
Язык : Russian
Default : Да
Forced : Нет

Аудио #2
Идентификатор : 3
Формат : DTS
Формат/Информация : Digital Theater Systems
Профиль формата : MA / Core
Режим : 16
Параметр Endianness формата : Big
Идентификатор кодека : A_DTS
Продолжительность : 2 ч. 11 м.
Вид битрейта : Переменный / Постоянный
Битрейт : 3840 Кбит/сек / 1509 Кбит/сек
Каналы : 6 каналов
Расположение каналов : Front: L C R, Side: L R, LFE
Частота : 48,0 КГц
Частота кадров : 93,750 кадра/сек (512 SPF)
Битовая глубина : 24 бит
Метод сжатия : Без потерь / Lossy
Размер потока : 3,48 Гбайт (11%)
Язык : French
Default : Нет
Forced : Нет

Аудио #3
Идентификатор : 4
Формат : AC-3
Формат/Информация : Audio Coding 3
Параметр Endianness формата : Big
Идентификатор кодека : A_AC3
Продолжительность : 2 ч. 8 м.
Вид битрейта : Постоянный
Битрейт : 192 Кбит/сек
Каналы : 2 канала
Расположение каналов : Front: L R
Частота : 48,0 КГц
Частота кадров : 31,250 кадров/сек (1536 SPF)
Битовая глубина : 16 бит
Метод сжатия : С потерями
Размер потока : 177 Мбайт (1%)
Заголовок : Commentary
Язык : Russian
Default : Нет
Forced : Нет

Текст #1
Идентификатор : 5
Формат : UTF-8
Идентификатор кодека : S_TEXT/UTF8
Идентификатор кодека/Информация : UTF-8 Plain Text
Продолжительность : 2 ч. 6 м.
Битрейт : 55 бит/сек
ElementCount : 739
Размер потока : 51,1 Кбайт (0%)
Язык : Russian
Default : Нет
Forced : Нет

Текст #2
Идентификатор : 6
Формат : UTF-8
Идентификатор кодека : S_TEXT/UTF8
Идентификатор кодека/Информация : UTF-8 Plain Text
Продолжительность : 2 ч. 5 м.
Битрейт : 30 бит/сек
ElementCount : 898
Размер потока : 28,2 Кбайт (0%)
Язык : English
Default : Нет
Forced : Нет

Меню
00:00:00.000 : en:00:00:00.000
00:08:20.542 : en:00:08:20.542
00:21:46.514 : en:00:21:46.514
00:30:06.680 : en:00:30:06.680
00:35:41.723 : en:00:35:41.723
00:39:56.352 : en:00:39:56.352
00:48:12.056 : en:00:48:12.056
00:54:51.622 : en:00:54:51.622
01:05:40.145 : en:01:05:40.145
01:16:33.506 : en:01:16:33.506
01:24:06.124 : en:01:24:06.124
01:38:59.892 : en:01:38:59.892
01:44:08.534 : en:01:44:08.534
01:50:51.687 : en:01:50:51.687
02:03:21.352 : en:02:03:21.352



Скачать Пианистка.La.Pianiste.(Михаэль.Ханеке).[2001.драма.мелодрама.музыка.BDRemux].[1080р].[MVO.(Амальгама)]+[Оригинал.(Fre)]+[Sub.Rus.Eng]x2.torrent без регистрации
Золото ЗОЛОТАЯ РАЗДАЧА! СКАЧАННОЕ НЕ ЗАСЧИТЫВАЕТСЯ! Золото
Дата: Зарегистрирован   [ Тип: внутренний ] Как тут cкачать?
MAGNET ссылка
MAGNET ссылка


Скачать .torrent

82 KB

Статус: проверено DHT
Скачан: торрент - 13 раз, раздача полностью - 0 раз
Размер: 32,62 GB
Оценка:  - (Голосов: 0)
Поблагодарили: 0
Поделиться ссылкой на эту раздачу с друзьями:
В контактеFacebookОдноклассникиTwitterLivejournalМой МирLiveinternet
 

 
Показать сообщения:    


Вы не можете начинать темы
Вы не можете отвечать на сообщения
Вы не можете редактировать свои сообщения
Вы не можете удалять свои сообщения
Вы не можете голосовать в опросах
Вы не можете прикреплять файлы к сообщениям
Вы можете скачивать файлы