Loading...
Error

Скачать Профессионалы / San Antonio (Фредерик Обуртин, Лорен Тоуил-Тарто) [2004, комедия, HDTVRip] [Dub] торрент без регистрации

Статистика раздачи
Размер:  741 MB   |    Скачан:  21 раз
Сидов:  1  [  0 KB/s  ]  
 
 
 
Автор Сообщение

Marsianka

[] 

Информация о фильме
Название: Профессионалы
Оригинальное название: San Antonio
Год выхода: 2004
Жанр: комедия
Режиссер: Фредерик Обуртин, Лорен Тоуил-Тарто
В ролях: Жерар Ланвен, Жерар Депардье, Мишель Галабрю, Барбара Шульц, Эрик Эбуани, Элизабет Маргони, Робер Оссейн, Мэриам д'Або, Сирьель Клер, Луи Рего, Аффиф Бен Бадра, Юбер Сен-Макари, Валерия Голино, Жак Списсе, Армель, Люси Харрисон, Патрик Медиони, Марк Фор, Мари-Тереза Арен, Ник Хоббс, Ванесса Гуеди, Патрик Бордье, Тони Готье, Уилфред Бенеш, Вирджиния Андерсон, Дельфин Зенту, Мишель Пилорже, Гийом Пеллегрен, Ричард Шевалье, Анри Гарсен, Фабрис Баньи, Мэттью Геци, Андре Торан, Юрген Маш, Жан-Роже Мило, Паташу, Элоди Эсме, Жан Делл, Мишель Б. Дюпериаль, Питер Кинг, Режис Ромель, Йорн Камбреленг, Мишель Бернье, Инна Гинкевич

О фильме:
Отважный комиссар французской полиции Антуан Сан-Антонио и его напарник Берирье, находясь в Великобритании, обеспечивали неприкосновенность французского посла, но не смогли уберечь его от террористов-похитителей, укравших посла прямо из Британского дворца. Причём Сан-Антонио невольно сам помог скрыться террористке. За это шеф уволил его с работы. Но к Антуану явился министр внутренних дел. Он сообщил, что Сан-Антонио предлагается занять новую должность в особом отделе. А вызвано это назначение тем, что пропал президент республики, и на его поиски спецслужбам выделили всего 48 часов.



Страна: Франция, Италия, Великобритания
Продолжительность: 01:26:33
Перевод: Профессиональный (полное дублирование)

Файл
Кодек: XviD
Качество: HDTVRip
Видео: 640x272 (2.35:1), 25 fps, XviD build 73 ~1058 kbps avg, 0.24 bit/pixel
Звук: 48 kHz, MPEG Layer 3, 2 ch, ~128.00 kbps avg
Субтитры: Отсутствуют

Семпл
General
Complete name : D:Изготовление рипаSan Antonio 2004 HDTVrip by shkiper.avi
Format : AVI
Format/Info : Audio Video Interleave
File size : 741 MiB
Duration : 1h 26mn
Overall bit rate : 1 197 Kbps
Writing application : VirtualDubMod 1.5.10.3 | www.virtualdub-fr.org || (build 2550/release)
Writing library : VirtualDubMod build 2550/release

Video
ID : 0
Format : MPEG-4 Visual
Format profile : Advanced Simple@L5
Format settings, BVOP : 1
Format settings, QPel : No
Format settings, GMC : No warppoints
Format settings, Matrix : Custom
Codec ID : XVID
Codec ID/Hint : XviD
Duration : 1h 26mn
Bit rate : 1 059 Kbps
Width : 640 pixels
Height : 272 pixels
Display aspect ratio : 2.35:1
Frame rate : 25.000 fps
Color space : YUV
Chroma subsampling : 4:2:0
Bit depth : 8 bits
Scan type : Progressive
Compression mode : Lossy
Bits/(Pixel*Frame) : 0.243
Stream size : 655 MiB (88%)
Writing library : XviD 73

Audio
ID : 1
Format : MPEG Audio
Format version : Version 1
Format profile : Layer 3
Codec ID : 55
Codec ID/Hint : MP3
Duration : 1h 26mn
Bit rate mode : Constant
Bit rate : 128 Kbps
Channel(s) : 2 channels
Sampling rate : 48.0 KHz
Compression mode : Lossy
Stream size : 79.2 MiB (11%)
Alignment : Aligned on interleaves
Interleave, duration : 40 ms (1.00 video frame)
Interleave, preload duratio : 504 ms
Writing library : LAME3.99r
Encoding settings : -m s -V 4 -q 2 -lowpass 17 -b 128
Релиз от:



Скачать Профессионалы.San.Antonio.(Фредерик.Обуртин.Лорен.Тоуил-Тарто).[2004.комедия.HDTVRip].[Dub].torrent без регистрации
Золото ЗОЛОТАЯ РАЗДАЧА! СКАЧАННОЕ НЕ ЗАСЧИТЫВАЕТСЯ! Золото
Дата: Зарегистрирован   [ Тип: внутренний ] Как тут cкачать?
MAGNET ссылка
MAGNET ссылка


Скачать .torrent

15 KB

Статус: проверено DHT
Скачан: торрент - 21 раз, раздача полностью - 1 раз
Размер: 741 MB
Оценка:  - (Голосов: 0)
Поблагодарили: 0
Поделиться ссылкой на эту раздачу с друзьями:
В контактеFacebookОдноклассникиTwitterLivejournalМой МирLiveinternet
 

 
Показать сообщения:    


Вы не можете начинать темы
Вы не можете отвечать на сообщения
Вы не можете редактировать свои сообщения
Вы не можете удалять свои сообщения
Вы не можете голосовать в опросах
Вы не можете прикреплять файлы к сообщениям
Вы можете скачивать файлы