Loading...
Error

Скачать Без кожи / Skinned Deep (Гейб Бартолос) [2004, ужасы, DVDRip-AVC] [DVO (Lizard)]+[Оригинал]+[Sub Rus] торрент без регистрации

Статистика раздачи
Размер:  1,45 GB   |    Скачан:  23 раза
Сидов:  1  [  0 KB/s  ]  
 
 
 
Автор Сообщение

Marsianka

[] 

Информация о фильме
Название: Без кожи
Оригинальное название: Skinned Deep
Год выхода: 2004
Жанр: ужасы
Режиссер: Гейб Бартолос
В ролях: Форрест Дж Экерман, Эрик Беннетт, Кэролин Брандт, Билл Баттс, Курт Карли, Билл Корсо, Уорвик Дэвис, Нил Дули, Джоэль Харлоу, Филип Джонс и др.

О фильме:
Рассказ прекрасной девушки Тины, заманенной в ловушку маниакальным сельским кланом мутантов-людоедов… Отныне о ней будут заботиться молчаливый Генеральный Хирург, орудующий своими железными челюстями, бесноватый карлик Блюдец, использующий любую посуду как орудие убийства, и монстроподобный Мозг, влюбившийся в свою новую игрушку.

Теперь Тине, ставшей беспомощной свидетельницей их жутких забав, придется пройти по зловонным лабиринтам дома пыток и боли, где на каждом шагу ее будет ждать свидание с изощренной смертью.


Страна: США
Продолжительность: 01:37:24
Перевод: Профессиональный (двухголосый закадровый) Lizard

Файл
Кодек: h.264
Качество: DVDRip-AVC
Видео: PEG-4, 720x552, 25.000 fps ~1748 kbps

1) 48 KHz, AC3, 2 ch ~192 Kbps - DVO [Lizard]
2) 48 KHz, AC3, 2 ch ~192 Kbps - Original
Субтитры: Русские
General
Unique ID : 206032903705575780778116583434923265220 (0x9B007E6EC28923CC892EEBC07DB3CCC4)
Format : Matroska
Format version : Version 4 / Version 2
File size : 1.45 GiB
Duration : 1 h 37 min
Overall bit rate : 2 134 kb/s
Movie name : Skinned Deep (2004)
Encoded date : UTC 2016-09-11 15:44:16 / UTC
Writing application : mkvmerge v9.3.1 ('Mask Machine') 64bit
Writing library : libebml v1.3.4 + libmatroska v1.4.5 / Lavf55.12.0
Cover : Yes
Attachments : Cover.jpg

Video
ID : 1
Format : AVC
Format/Info : Advanced Video Codec
Format profile : High@L4.1
Format settings, CABAC : Yes
Format settings, ReFrames : 9 frames
Codec ID : V_MPEG4/ISO/AVC
Duration : 1 h 37 min
Bit rate : 1 748 kb/s
Width : 720 pixels
Height : 552 pixels
Display aspect ratio : 4:3
Frame rate mode : Constant
Frame rate : 25.000 FPS
Color space : YUV
Chroma subsampling : 4:2:0
Bit depth : 8 bits
Scan type : Progressive
Bits/(Pixel*Frame) : 0.176
Stream size : 1.16 GiB (80%)
Title : MPEG-4, 720x552, 25.000 fps ~1748 kbps
Writing library : x264 core 142 r2479 dd79a61
Encoding settings : cabac=1 / ref=9 / deblock=1:-3:-3 / analyse=0x3:0x133 / me=umh / subme=11 / psy=1 / psy_rd=1.00:0.15 / mixed_ref=1 / me_range=24 / chroma_me=1 / trellis=2 / 8x8dct=1 / cqm=0 / deadzone=21,11 / fast_pskip=0 / chroma_qp_offset=-3 / threads=6 / lookahead_threads=1 / sliced_threads=0 / nr=0 / decimate=1 / interlaced=0 / bluray_compat=0 / constrained_intra=0 / bframes=16 / b_pyramid=2 / b_adapt=2 / b_bias=0 / direct=3 / weightb=1 / open_gop=0 / weightp=2 / keyint=250 / keyint_min=25 / scenecut=40 / intra_refresh=0 / rc_lookahead=60 / rc=2pass / mbtree=0 / bitrate=1748 / ratetol=1.0 / qcomp=0.60 / qpmin=0 / qpmax=69 / qpstep=4 / cplxblur=20.0 / qblur=0.5 / vbv_maxrate=62500 / vbv_bufsize=78125 / nal_hrd=none / filler=0 / ip_ratio=1.40 / pb_ratio=1.30 / aq=1:1.00
Language : English
Default : Yes
Forced : No
Color range : Limited
Color primaries : BT.601 PAL
Transfer characteristics : BT.709
Matrix coefficients : BT.601
Statistics Tags Issue : mkvmerge v9.3.1 ('Mask Machine') 64bit 2016-09-11 15:44:16 / mkvmerge v9.3.1 ('Mask Machine') 64bit 2016-09-11 15:44:16 / UTC
FromStats_BitRate : 1747981
FromStats_Duration : 01:37:24.800000000
FromStats_FrameCount : 146120
FromStats_StreamSize : 1277075469

Audio #1
ID : 2
Format : AC-3
Format/Info : Audio Coding 3
Format profile : Dolby Digital
Mode extension : CM (complete main)
Format settings, Endianness : Big
Codec ID : A_AC3
Duration : 1 h 37 min
Bit rate mode : Constant
Bit rate : 192 kb/s
Channel(s) : 2 channels
Channel positions : Front: L R
Sampling rate : 48.0 kHz
Frame rate : 31.250 FPS (1536 spf)
Compression mode : Lossy
Delay relative to video : -5 ms
Stream size : 134 MiB (9%)
Title : 48 KHz, AC3, 2 ch ~192 Kbps - DVO [Lizard]
Language : Russian
Default : Yes
Forced : No
Statistics Tags Issue : mkvmerge v9.3.1 ('Mask Machine') 64bit 2016-09-11 15:44:16 / mkvmerge v9.3.1 ('Mask Machine') 64bit 2016-09-11 15:44:16 / UTC
FromStats_BitRate : 192000
FromStats_Duration : 01:37:11.072000000
FromStats_FrameCount : 182221
FromStats_StreamSize : 139945728

Audio #2
ID : 3
Format : AC-3
Format/Info : Audio Coding 3
Format profile : Dolby Digital
Mode extension : CM (complete main)
Format settings, Endianness : Big
Codec ID : A_AC3
Duration : 1 h 37 min
Bit rate mode : Constant
Bit rate : 192 kb/s
Channel(s) : 2 channels
Channel positions : Front: L R
Sampling rate : 48.0 kHz
Frame rate : 31.250 FPS (1536 spf)
Compression mode : Lossy
Delay relative to video : -5 ms
Stream size : 134 MiB (9%)
Title : 48 KHz, AC3, 2 ch ~192 Kbps - Original
Language : English
Default : No
Forced : No
Statistics Tags Issue : mkvmerge v9.3.1 ('Mask Machine') 64bit 2016-09-11 15:44:16 / mkvmerge v9.3.1 ('Mask Machine') 64bit 2016-09-11 15:44:16 / UTC
FromStats_BitRate : 192000
FromStats_Duration : 01:37:11.072000000
FromStats_FrameCount : 182221
FromStats_StreamSize : 139945728

Text
ID : 4
Format : VobSub
Muxing mode : zlib
Codec ID : S_VOBSUB
Codec ID/Info : Picture based subtitle format used on DVDs
Language : Russian
Default : No
Forced : No
Statistics Tags Issue : mkvmerge v9.3.1 ('Mask Machine') 64bit 2016-09-11 15:44:16 / mkvmerge v9.3.1 ('Mask Machine') 64bit 2016-09-11 15:44:16 / UTC
FromStats_BitRate : 782
FromStats_Duration : 01:31:54.155000000
FromStats_FrameCount : 441
FromStats_StreamSize : 539191

Menu
00:00:00.000 : :Chapter 1
00:07:28.080 : :Chapter 2
00:10:58.800 : :Chapter 3
00:14:52.240 : :Chapter 4
00:19:04.400 : :Chapter 5
00:24:42.960 : :Chapter 6
00:31:52.240 : :Chapter 7
00:35:43.120 : :Chapter 8
00:38:53.680 : :Chapter 9
00:44:06.160 : :Chapter 10
00:50:20.400 : :Chapter 11
00:58:32.400 : :Chapter 12
01:06:24.400 : :Chapter 13
01:11:00.560 : :Chapter 14
01:18:52.400 : :Chapter 15
01:33:32.880 : :Chapter 16



Скачать Без.кожи.Skinned.Deep.(Гейб.Бартолос).[2004.ужасы.DVDRip-AVC].[DVO.(Lizard)]+[Оригинал]+[Sub.Rus].torrent без регистрации
Золото ЗОЛОТАЯ РАЗДАЧА! СКАЧАННОЕ НЕ ЗАСЧИТЫВАЕТСЯ! Золото
Дата: Зарегистрирован   [ Тип: внутренний ] Как тут cкачать?
MAGNET ссылка
MAGNET ссылка


Скачать .torrent

16 KB

Статус: проверено DHT
Скачан: торрент - 23 раз, раздача полностью - 1 раз
Размер: 1,45 GB
Оценка:  - (Голосов: 0)
Поблагодарили: 0
Поделиться ссылкой на эту раздачу с друзьями:
В контактеFacebookОдноклассникиTwitterLivejournalМой МирLiveinternet
 

 
Показать сообщения:    


Вы не можете начинать темы
Вы не можете отвечать на сообщения
Вы не можете редактировать свои сообщения
Вы не можете удалять свои сообщения
Вы не можете голосовать в опросах
Вы не можете прикреплять файлы к сообщениям
Вы можете скачивать файлы