Loading...
Error

Скачать Острые козырьки / Peaky Blinders (Сезон 04, серии 01-04 из 06) [2017, драма, криминал, WEB-DL/HDTV] [1080p] [MVO] (AlexFilm) торрент без регистрации

Статистика раздачи
Размер:  9,88 GB   |    Скачан:  47 раз
Сидов:  1  [  0 KB/s  ]   Личеров:  1  [  0 KB/s  ]  
 
 
 
Автор Сообщение

leon030982

[] 


Заточенные кепки /Острые козырьки / Peaky Blinders


Год выпуска: 2017
Страна: Великобритания
Жанр: драма, криминал
Продолжительность: 1x ~00:59:00
Перевод: Профессиональный (многоголосый) • AlexFilm
Субтитры: нет

Режиссер: Отто Баферст / Otto Bathurst, Том Харпер / Tom Harper

В ролях: Киллиан Мерфи, Пол Андерсон, Иддо Голдберг, Хелен МакКрори, Сэм Нилл, Аннабелль Уоллис, Джо Коул, Элфи Эванс-Мис, Джек Хартли, Кевин Меткалф


Британский сериал о криминальном мире Бирмингема 20-х годов прошлого века, в котором многолюдная семья Шелби стала одной из самых жестоких и влиятельных гангстерских банд послевоенного времени. Фирменным знаком группировки, промышлявшей грабежами и азартными играми, стали зашитые в козырьки лезвия.



Качество: WEB-DL/HDTV 1080p
Формат: MKV
Видео кодек: AVC
Аудио кодек: AC3
Видео: 1920x1040 (1,85:1), 25 fps, MPEG-4 AVC ~6100 kbps avg, 0.123 bit/pixel
Аудио: 48 kHz, AC3 2.0, ~192 kbps avg [MVO]
Аудио: 48 kHz, AC3 2.0, ~192 kbps avg [ENG]

Релиз:

Перевод: Виктория Востокова
Монтаж и сведение звука: Михаил Шорыгин
Роли озвучивали:
Евгения Тихонова
Екатерина Муравицкая
Владимир Курдов
Константин Погодаев
Кирилл Патрино
Михаил Суслов
Complete name : J:\Torrents\Video\Peaky.Blinders - Season 4 (AlexFilm) WEB-DL 1080p\Peaky.Blinders.s04e01.WEB-DL.1080p.Rus.Eng.AlexFilm.mkv
Format : Matroska
Format version : Version 4 / Version 2
File size : 2.69 GiB
Duration : 57 min 50 s
Overall bit rate mode : Variable
Overall bit rate : 6 654 kb/s
Encoded date : UTC 2017-11-17 06:12:23
Writing application : mkvmerge v6.1.0 ('Old Devil') built on Mar 4 2013 09:10:42
Writing library : libebml v1.3.0 + libmatroska v1.4.0

Video
ID : 1
Format : AVC
Format/Info : Advanced Video Codec
Format profile : High@L4
Format settings, CABAC : Yes
Format settings, ReFrames : 4 frames
Codec ID : V_MPEG4/ISO/AVC
Duration : 57 min 50 s
Bit rate mode : Variable
Bit rate : 6 137 kb/s
Maximum bit rate : 15.0 Mb/s
Width : 1 920 pixels
Height : 1 040 pixels
Display aspect ratio : 1.85:1
Frame rate mode : Constant
Frame rate : 25.000 FPS
Color space : YUV
Chroma subsampling : 4:2:0
Bit depth : 8 bits
Scan type : Progressive
Bits/(Pixel*Frame) : 0.123
Stream size : 2.48 GiB (92%)
Default : Yes
Forced : No
Color range : Limited
Color primaries : BT.709
Transfer characteristics : BT.709
Matrix coefficients : BT.709

Audio #1
ID : 2
Format : AC-3
Format/Info : Audio Coding 3
Mode extension : CM (complete main)
Format settings, Endianness : Big
Codec ID : A_AC3
Duration : 57 min 50 s
Bit rate mode : Constant
Bit rate : 192 kb/s
Channel(s) : 2 channels
Channel positions : Front: L R
Sampling rate : 48.0 kHz
Frame rate : 31.250 FPS (1536 spf)
Compression mode : Lossy
Stream size : 79.4 MiB (3%)
Title : DD 2.0 AlexFilm
Language : Russian
Default : Yes
Forced : No

Audio #2
ID : 3
Format : AC-3
Format/Info : Audio Coding 3
Mode extension : CM (complete main)
Format settings, Endianness : Big
Codec ID : A_AC3
Duration : 57 min 50 s
Bit rate mode : Constant
Bit rate : 192 kb/s
Channel(s) : 2 channels
Channel positions : Front: L R
Sampling rate : 48.0 kHz
Frame rate : 31.250 FPS (1536 spf)
Compression mode : Lossy
Stream size : 79.4 MiB (3%)
Title : Eng
Language : English
Default : No
Forced : No
Внимание! Раздача ведётся путём добавления новых серий; при каждом добавлении создаётся новый торрент. Чтобы начать докачку новой серии, пользователям необходимо сделать следующее:
(1) остановить скачивание,
(2) удалить старый торрент у себя из клиента (старые серии удалять не надо),
(3) скачать новый торрент и запустить его у себя в клиенте вместо старого, при этом указать клиенту путь в старую папку куда и должно происходить скачивание новых серий.
Ваш клиент при этом должен произвести хеширование (проверку) старой папки (если не производит сам - помогите ему сделать это), и будет докачивать только те серии которых у вас ещё нет. Старые серии при этом не удаляются, а продолжают раздаваться!
Eсли вы уже удалили старые серии, то предотвратить повторную закачку старых серий можно, отжав галочку в соответствующих местах при запуске нового торрента. По возможности, желательно не удалять старые серии как можно дольше чтобы релизёр не столько продолжал раздавать старые серии, а смог сконцентрироваться на новых.



Скачать Острые.козырьки.Peaky.Blinders.(Сезон.04.серии.01-04.из.06).[2017.драма.криминал.WEB-DL.HDTV].[1080p].[MVO].(AlexFilm).torrent без регистрации
Золото ЗОЛОТАЯ РАЗДАЧА! СКАЧАННОЕ НЕ ЗАСЧИТЫВАЕТСЯ! Золото
Дата: Зарегистрирован   [ Тип: внутренний ] Как тут cкачать?
MAGNET ссылка
MAGNET ссылка


Скачать .torrent

50 KB

Статус: проверено DHT
Скачан: торрент - 47 раз, раздача полностью - 9 раз
Размер: 9,88 GB
Оценка:  - (Голосов: 0)
Поблагодарили: 0
Поделиться ссылкой на эту раздачу с друзьями:
В контактеFacebookОдноклассникиTwitterLivejournalМой МирLiveinternet
 

 
Показать сообщения:    


Вы не можете начинать темы
Вы не можете отвечать на сообщения
Вы не можете редактировать свои сообщения
Вы не можете удалять свои сообщения
Вы не можете голосовать в опросах
Вы не можете прикреплять файлы к сообщениям
Вы можете скачивать файлы