Loading...
Error

Скачать Каратель / The Punisher (Сезон 01) (Энди Годдард, Марк Йобст, Кари Скогланд) [2017, фантастика, боевик, триллер, драма, криминал, приключения, WEBRip] [MVO] (Profix Media) торрент без регистрации

Статистика раздачи
Размер:  5,68 GB   |    Скачан:  32 раза
Сидов:  4  [  292 KB/s  ]  
 
 
 
Автор Сообщение

leon030982

[] 

Каратель / The Punisher

Год выпуска: 2017
Страна: США
Производство: Walt Disney Television, NetFlix, Marvel Entertainment, ABC Studios
Жанр: фантастика, боевик, триллер, драма, криминал, приключения
Продолжительность: 1х ~00:52:00
Перевод: Профессиональный (многоголосый, закадровый) | Profix Media

Субтитры: нет

Режиссеры: Энди Годдард, Марк Йобст, Кари Скогланд

Авторы сценария: Стив Лайтфут, Майкл Джонс-Моралес, Джерри Конуэй

В ролях: Бен Барнс, Джон Бернтал, Джейсон Р. Мур, Эбон Мосс-Бакрак, Майкл Натансон, Джейми Рэй Ньюман, Эмбер Роуз Рева, Пол Шульц

Описание: После того, как семья Фрэнка Касла была убита во время перестрелки нескольких банд Нью-Йорка, он решает отомстить и начинает охоту на преступников города. В преступном мире он становится известен как Каратель...



Качество: WEBRip
Формат: AVI
Видео кодек: XvID
Аудио кодек: MP3
Видео: XviD, ~ 1087 Кбит/с, 720х400, 23.976 fps
Аудио: 48.0 kHz, MP3, 2 ch, ~224 kbps avg
General
Complete name : E:\The.Punisher.S01.WEBRip.Profix.Media\The.Punisher.S01E01.WEBRip.Profix.Media.avi
Format : AVI
Format/Info : Audio Video Interleave
File size : 403 MiB
Duration : 51 min 52 s
Overall bit rate : 1 087 kb/s
Writing application : Lavf57.25.100

Video
ID : 0
Format : xvid
Codec ID : xvid
Duration : 51 min 52 s
Bit rate : 811 kb/s
Width : 720 pixels
Height : 400 pixels
Display aspect ratio : 16:9
Frame rate : 23.976 (24000/1001) FPS
Scan type : Progressive
Bits/(Pixel*Frame) : 0.117
Stream size : 301 MiB (75%)
Title : Video Track

Audio
ID : 1
Format : MPEG Audio
Format version : Version 1
Format profile : Layer 3
Format settings : Joint stereo
Mode : Joint stereo
Codec ID : 55
Codec ID/Hint : MP3
Duration : 51 min 52 s
Bit rate mode : Constant
Bit rate : 224 kb/s
Channel(s) : 2 channels
Sampling rate : 48.0 kHz
Compression mode : Lossy
Stream size : 83.1 MiB (21%)
Alignment : Aligned on interleaves
Title : Audio Track
Внимание! Раздача ведётся путём добавления новых серий; при каждом добавлении создаётся новый торрент. Чтобы начать докачку новой серии, пользователям необходимо сделать следующее:
(1) остановить скачивание,
(2) удалить старый торрент у себя из клиента (старые серии удалять не надо),
(3) скачать новый торрент и запустить его у себя в клиенте вместо старого, при этом указать клиенту путь в старую папку куда и должно происходить скачивание новых серий.
Ваш клиент при этом должен произвести хеширование (проверку) старой папки (если не производит сам - помогите ему сделать это), и будет докачивать только те серии которых у вас ещё нет. Старые серии при этом не удаляются, а продолжают раздаваться!
Eсли вы уже удалили старые серии, то предотвратить повторную закачку старых серий можно, отжав галочку в соответствующих местах при запуске нового торрента. По возможности, желательно не удалять старые серии как можно дольше чтобы релизёр не столько продолжал раздавать старые серии, а смог сконцентрироваться на новых.




Скачать Каратель.The.Punisher.(Сезон.01).(Энди.Годдард.Марк.Йобст.Кари.Скогланд).[2017.фантастика.боевик.триллер.драма.криминал.приключения.WEBRip].[MVO].(Profix.Media).torrent без регистрации
Золото ЗОЛОТАЯ РАЗДАЧА! СКАЧАННОЕ НЕ ЗАСЧИТЫВАЕТСЯ! Золото
Дата: Зарегистрирован   [ Тип: внутренний ] Как тут cкачать?
MAGNET ссылка
MAGNET ссылка


Скачать .torrent

16 KB

Статус: проверено DHT
Скачан: торрент - 32 раз, раздача полностью - 27 раз
Размер: 5,68 GB
Оценка:  - (Голосов: 0)
Поблагодарили: 1
Поделиться ссылкой на эту раздачу с друзьями:
В контактеFacebookОдноклассникиTwitterLivejournalМой МирLiveinternet
 

 
Показать сообщения:    


Вы не можете начинать темы
Вы не можете отвечать на сообщения
Вы не можете редактировать свои сообщения
Вы не можете удалять свои сообщения
Вы не можете голосовать в опросах
Вы не можете прикреплять файлы к сообщениям
Вы можете скачивать файлы