Loading...
Error

Скачать Зомби по имени Шон / Shaun of the Dead (Эдгар Райт) [2004, ужасы, комедия, BDRip-HEVC] [1080p] [MVO]+[DVO]+[Оригинал]+[Sub Rus, Eng]x2 торрент без регистрации

Статистика раздачи
Размер:  5,22 GB   |    Скачан:  11 раз
Сидов:  1  [  0 KB/s  ]  
 
 
 
Автор Сообщение

Marsianka

[] 

Информация о фильме
Название: Зомби по имени Шон
Оригинальное название: Shaun of the Dead
Год выхода: 2004
Жанр: ужасы, комедия
Режиссер: Эдгар Райт
В ролях: Саймон Пегг, Кейт Эшфилд, Ник Фрост, Люси Дэвис, Дилан Моран, Николя Каннингэм, Кейр Миллс, Мэтт Джейнс, Гэвин Фергюсон, Питер Серафинович

О фильме:
Жизнь Шона похожа на бесконечный, тоскливый сон: нудная работа, бытовые дрязги, «разборки» с подружкой и проблемы с мамой. Единственная отдушина нашего парня — местная пивная, где он после работы «заседает» со своим другом по имени Эд.
Вы не поверите, но мертвецы залежались в могилах: они решили разнообразить своё скучное существование и собрались «прошвырнуться» по городу, полакомившись свежей живой плотью!
Начинается зомби-эпидемия с участием огромного количества распоясавшихся живых трупов, которые весьма проголодались и страстно жаждут погрызть человеческое мяско!
И кто, как Вы думаете, сможет положить конец зловещему рассвету мертвецов?! Конечно же Шон, который, ради такого случая, восстал…с дивана, вооружился битой и приготовился надавать зомби основательных тумаков! Теперь наш новоявленный супергерой должен спасти не только человечество, но и …свою коллекцию грампластинок!


Страна: Великобритания, Франция, США
Продолжительность: 01:39:20
Перевод: Профессиональный (многоголосый, закадровый), профессиональный (двухголосый, закадровый) Tycoon-Studio

Файл
Кодек: HEVC x265 10 bit
Качество: BDRip-HEVC 1080p
Видео: 1872x820 (1.25:1), 6136 Кбит/сек, 0.167 бит/(Пиксели*Кадры), 23,976 кадр/сек (24000/1001), HEVC (Main10@L.5.1@High) 10 бит

Русская, AC3, 448 Кбит/сек, Front: L C R, Side: L R, LFE, 48,0 КГц (MVO Blu-ray)
Русская, AC3, 448 Кбит/сек, Front: L C R, Side: L R, LFE, 48,0 КГц (DVO Tycoon-Studio(с ненормативной лексикой))
Английская, AC3, 448 Кбит/сек, Front: L C R, Side: L R, LFE, 48,0 КГц (Оригинал)
Субтитры: русские (Blu-ray, Tycoon), английские
Разделение по главам: есть
Семпл

General
Unique ID : 209723189616867105484016516489974331554 (0x9DC737934FDEE7DFB7059A0F898B38A2)
Complete name : I:HEVC 210 BITShaun of the Dead_2004_BDRip_1080p_[HEVC]_10bit.mkv
Format : Matroska
Format version : Version 4 / Version 2
File size : 5.22 GiB
Duration : 1 h 39 min
Overall bit rate : 7 509 kb/s
Encoded date : UTC 2017-11-20 15:43:06
Writing application : mkvmerge v9.9.0 ('Pick Up') 64bit
Writing library : libebml v1.3.4 + libmatroska v1.4.5
Cover : Yes
Attachments : cover.png

Video
ID : 1
Format : HEVC
Format/Info : High Efficiency Video Coding
Format profile : Main 10@L5.1@High
Codec ID : V_MPEGH/ISO/HEVC
Duration : 1 h 39 min
Bit rate : 6 163 kb/s
Width : 1 872 pixels
Height : 820 pixels
Display aspect ratio : 2.25:1
Frame rate mode : Constant
Frame rate : 23.976 (24000/1001) FPS
Color space : YUV
Chroma subsampling : 4:2:0
Bit depth : 10 bits
Bits/(Pixel*Frame) : 0.167
Stream size : 4.28 GiB (82%)
Writing library : x265 2.5+14-2718cb5dd67f:[Windows][GCC 7.1.0][64 bit] 10bit
Encoding settings : cpuid=1173503 / frame-threads=4 / numa-pools=16 / wpp / no-pmode / no-pme / no-psnr / no-ssim / log-level=2 / input-csp=1 / input-res=1872x820 / interlace=0 / total-frames=0 / level-idc=51 / high-tier=1 / uhd-bd=0 / ref=5 / no-allow-non-conformance / no-repeat-headers / annexb / no-aud / no-hrd / info / hash=0 / no-temporal-layers / open-gop / min-keyint=23 / keyint=240 / bframes=8 / b-adapt=2 / no-b-pyramid / bframe-bias=0 / rc-lookahead=40 / lookahead-slices=4 / scenecut=40 / no-intra-refresh / ctu=64 / min-cu-size=8 / rect / no-amp / max-tu-size=32 / tu-inter-depth=2 / tu-intra-depth=4 / limit-tu=1 / rdoq-level=0 / dynamic-rd=0.00 / no-ssim-rd / signhide / no-tskip / nr-intra=0 / nr-inter=0 / no-constrained-intra / no-strong-intra-smoothing / max-merge=4 / limit-refs=3 / no-limit-modes / me=3 / subme=7 / merange=57 / temporal-mvp / weightp / weightb / no-analyze-src-pics / deblock=-3:-3 / no-sao / no-sao-non-deblock / rd=4 / no-early-skip / no-rskip / no-fast-intra / no-tskip-fast / no-cu-lossless / no-b-intra / no-splitrd-skip / rdpenalty=0 / psy-rd=2.00 / psy-rdoq=0.00 / no-rd-refine / analysis-reuse-mode=0 / no-lossless / cbqpoffs=0 / crqpoffs=0 / rc=crf / crf=20.0 / qcomp=0.60 / qpstep=1 / stats-write=0 / stats-read=0 / vbv-maxrate=160000 / vbv-bufsize=160000 / vbv-init=0.9 / crf-max=0.0 / crf-min=0.0 / ipratio=1.10 / pbratio=1.00 / aq-mode=1 / aq-strength=0.00 / cutree / zone-count=1 / zones: / start-frame=135262 / end-frame=143070 / qp=35 / no-strict-cbr / qg-size=32 / no-rc-grain / qpmax=51 / qpmin=0 / no-const-vbv / sar=0 / overscan=0 / videoformat=5 / range=0 / colorprim=2 / transfer=2 / colormatrix=1 / chromaloc=0 / display-window=0 / max-cll=0,0 / min-luma=0 / max-luma=1023 / log2-max-poc-lsb=8 / vui-timing-info / vui-hrd-info / slices=1 / opt-qp-pps / opt-ref-list-length-pps / no-multi-pass-opt-rps / scenecut-bias=0.05 / no-opt-cu-delta-qp / no-aq-motion / no-hdr / no-hdr-opt / no-dhdr10-opt / analysis-reuse-level=5 / scale-factor=0 / refine-intra=0 / refine-inter=0 / refine-mv=0 / no-limit-sao / ctu-info=0
Default : Yes
Forced : Yes
Color range : Limited
Matrix coefficients : BT.709

Audio #1
ID : 2
Format : AC-3
Format/Info : Audio Coding 3
Format settings, Endianness : Big
Codec ID : A_AC3
Duration : 1 h 39 min
Bit rate mode : Constant
Bit rate : 448 kb/s
Channel(s) : 6 channels
Channel positions : Front: L C R, Side: L R, LFE
Sampling rate : 48.0 kHz
Frame rate : 31.250 FPS (1536 SPF)
Bit depth : 16 bits
Compression mode : Lossy
Stream size : 318 MiB (6%)
Title : MVO (лицензия Blu-ray EUR)
Language : Russian
Service kind : Complete Main
Default : Yes
Forced : No

Audio #2
ID : 3
Format : AC-3
Format/Info : Audio Coding 3
Format settings, Endianness : Big
Codec ID : A_AC3
Duration : 1 h 39 min
Bit rate mode : Constant
Bit rate : 448 kb/s
Channel(s) : 6 channels
Channel positions : Front: L C R, Side: L R, LFE
Sampling rate : 48.0 kHz
Frame rate : 31.250 FPS (1536 SPF)
Bit depth : 16 bits
Compression mode : Lossy
Delay relative to video : 16 ms
Stream size : 318 MiB (6%)
Title : MVO (Tycoon-Studio)(с ненормативной лексикой)
Language : Russian
Service kind : Complete Main
Default : No
Forced : No

Audio #3
ID : 4
Format : AC-3
Format/Info : Audio Coding 3
Format settings, Endianness : Big
Codec ID : A_AC3
Duration : 1 h 39 min
Bit rate mode : Constant
Bit rate : 448 kb/s
Channel(s) : 6 channels
Channel positions : Front: L C R, Side: L R, LFE
Sampling rate : 48.0 kHz
Frame rate : 31.250 FPS (1536 SPF)
Bit depth : 16 bits
Compression mode : Lossy
Stream size : 318 MiB (6%)
Title : Оригинал
Language : English
Service kind : Complete Main
Default : No
Forced : No

Text #1
ID : 5
Format : UTF-8
Codec ID : S_TEXT/UTF8
Codec ID/Info : UTF-8 Plain Text
Duration : 1 h 37 min
Bit rate : 112 b/s
Count of elements : 1259
Stream size : 81.1 KiB (0%)
Language : Russian
Default : No
Forced : No

Text #2
ID : 6
Format : UTF-8
Codec ID : S_TEXT/UTF8
Codec ID/Info : UTF-8 Plain Text
Duration : 1 h 33 min
Bit rate : 113 b/s
Count of elements : 1235
Stream size : 77.7 KiB (0%)
Title : с ненормативной лексикой
Language : Russian
Default : No
Forced : No

Text #3
ID : 7
Format : UTF-8
Codec ID : S_TEXT/UTF8
Codec ID/Info : UTF-8 Plain Text
Duration : 1 h 34 min
Bit rate : 78 b/s
Count of elements : 1535
Stream size : 54.3 KiB (0%)
Language : English
Default : No
Forced : No

Menu
00:00:00.000 : :Last Orders
00:03:35.048 : :Opening Titles
00:05:02.885 : :Ed and Breakfast
00:07:26.571 : :Good Mourning
00:08:52.490 : :Team Pie
00:12:14.942 : :Pigeon Street
00:13:50.538 : :Eating Out?
00:15:58.958 : :The Dumping
00:18:26.855 : :Hog Lumps and Heartache
00:21:48.515 : :White Lines, Don't Do It
00:25:34.991 : :Residential Evil
00:28:43.388 : :There's Something About Mary
00:30:53.268 : :Here Comes the Groom
00:33:05.775 : :Jukebox Jury
00:35:23.871 : :The Mummy
00:36:59.592 : :The Perfect Plan
00:39:33.704 : :Curtains for Pete
00:40:34.932 : :Escape From Crouch End
00:42:11.070 : :Kill Phil
00:46:04.553 : :Blood Actually
00:47:41.191 : :In to Bat
00:48:35.996 : :Bowling a Maiden Over
00:51:32.964 : :Sunday Driver
00:55:00.672 : :The Others
00:56:49.239 : :Garden Party
00:58:04.564 : :Swingball Wizard
01:00:09.147 : :Playing Dead
01:04:20.398 : :Pub Grub
01:07:50.483 : :Monkey Nuts
01:10:42.947 : :Killer Queen
01:13:57.349 : :First Person Shoot 'em Up
01:16:39.428 : :Ever Decreasing Barbara
01:21:23.295 : :Cocktails and Entrails
01:25:24.828 : :Cellar Dwellers
01:29:58.393 : :Staying Alive
01:31:36.491 : :Remembering 'z' Day
01:33:47.663 : :End Credits
Релиз от: от XuMuK



Скачать Зомби.по.имени.Шон.Shaun.of.the.Dead.(Эдгар.Райт).[2004.ужасы.комедия.BDRip-HEVC].[1080p].[MVO]+[DVO]+[Оригинал]+[Sub.Rus.Eng]x2.torrent без регистрации
Золото ЗОЛОТАЯ РАЗДАЧА! СКАЧАННОЕ НЕ ЗАСЧИТЫВАЕТСЯ! Золото
Дата: Зарегистрирован   [ Тип: внутренний ] Как тут cкачать?
MAGNET ссылка
MAGNET ссылка


Скачать .torrent

14 KB

Статус: проверено DHT
Скачан: торрент - 11 раз, раздача полностью - 1 раз
Размер: 5,22 GB
Оценка:  - (Голосов: 0)
Поблагодарили: 0
Поделиться ссылкой на эту раздачу с друзьями:
В контактеFacebookОдноклассникиTwitterLivejournalМой МирLiveinternet
 

 
Показать сообщения:    


Вы не можете начинать темы
Вы не можете отвечать на сообщения
Вы не можете редактировать свои сообщения
Вы не можете удалять свои сообщения
Вы не можете голосовать в опросах
Вы не можете прикреплять файлы к сообщениям
Вы можете скачивать файлы