Loading...
Error

Скачать Изгнанники / Banished (сезон 01) (Джеффри Уокер, Дэниэл Персивал) [2015, драма, история, BDRip] [1080p] [MVO]+[Eng] торрент без регистрации

Статистика раздачи
Размер:  23,43 GB   |    Скачан:  9 раз
Сидов:  1  [  0 KB/s  ]  
 
 
 
Автор Сообщение

МихаНЕзатор

[] 

Название: Изгнанники
Оригинальное название: Banished
Год выхода: 2015
Страна: Великобритания
Жанр: драма, история
Режиссер: Джеффри Уокер, Дэниэл Персивал

В ролях: Орла Брэйди, Юэн Бремнер, МайАнна Бёринг, Райан Корр, Дэвид Доусон, Нед Деннехи, Брук Харман, Кэл Макэнинк, Джозеф Миллсон, Николас Мосс, ...

О фильме: В 1788 году на британскую территорию в Австралии - «Новый Южный Уэльс» прибывает первая партия каторжников — мужчин и женщин. В связи с отделением американских земель от Британии, их перестали принимать на американском континенте. Теперь их каторга в Австралии. Осуждённых охраняют британские морские пехотинцы. На пятерых мужчин в поселении приходится одна женщина. Начинается приспособление к новым условиям как каторжников, так и охраняющих их солдат. В ожесточенной борьбе за существование «разменной монетой» становятся еда и женщины…



Студия: BBC Worldwide ANZ, RSJ Films, See-Saw Films
Продолжительность: 7 x ~ 52:00
Перевод: Профессиональный (многоголосый, закадровый) с канала КИНОСЕРИЯ

Кодек: x264
Качество: BDRip 1080p
Видео: 1920x1080, ~8500 kbps, 25 fps
Аудио #1: AC-3, 2 ch, 192 kbps (Rus) - ТВ КИНОСЕРИЯ
Аудио #2: AC-3, 6 ch, 448 kbps (Eng)
Субтитры: нет

АНОНСЫ ПОПУЛЯРНЫХ РАЗДАЧ
Общее
Уникальный идентификатор : 254548684261181638502092064812902919119 (0xBF804B17D353766B80B06F27133C2BCF)
Полное имя : Banished E01 S01 2015 BDRip 1080p КИНОСЕРИЯ.mkv
Формат : Matroska
Версия формата : Version 2
Размер файла : 3,35 Гбайт
Продолжительность : 52 м.
Общий поток : 9159 Кбит/сек
Дата кодирования : UTC 2017-11-18 13:51:43
Программа кодирования : mkvmerge v4.0.0 ('The Stars were mine') сборка от Jun 6 2010 16:18:42
Библиотека кодирования : libebml v1.0.0 + libmatroska v1.0.0

Видео
Идентификатор : 1
Формат : AVC
Формат/Информация : Advanced Video Codec
Профиль формата : High@L4.1
Параметр CABAC формата : Да
Параметр ReFrames формата : 4 кадра
Идентификатор кодека : V_MPEG4/ISO/AVC
Продолжительность : 52 м.
Битрейт : 8515 Кбит/сек
Ширина : 1920 пикселей
Высота : 1080 пикселей
Соотношение сторон : 16:9
Режим частоты кадров : Постоянный
Частота кадров : 25,000 кадров/сек
Цветовое пространство : YUV
Субдискретизация насыщенности : 4:2:0
Битовая глубина : 8 бит
Тип развёртки : Прогрессивная
Бит/(Пиксели*Кадры) : 0.164
Размер потока : 3,05 Гбайт (91%)
Библиотека кодирования : x264 core 148 r2744 b97ae06
Настройки программы : cabac=1 / ref=4 / deblock=1:-3:-3 / analyse=0x3:0x113 / me=umh / subme=8 / psy=1 / psy_rd=1.00:0.00 / mixed_ref=1 / me_range=16 / chroma_me=1 / trellis=1 / 8x8dct=1 / cqm=0 / deadzone=21,11 / fast_pskip=1 / chroma_qp_offset=-2 / threads=18 / lookahead_threads=3 / sliced_threads=0 / nr=0 / decimate=1 / interlaced=0 / bluray_compat=0 / constrained_intra=0 / bframes=3 / b_pyramid=2 / b_adapt=2 / b_bias=0 / direct=3 / weightb=1 / open_gop=0 / weightp=2 / keyint=250 / keyint_min=25 / scenecut=40 / intra_refresh=0 / rc_lookahead=50 / rc=2pass / mbtree=1 / bitrate=8515 / ratetol=1.0 / qcomp=0.60 / qpmin=0 / qpmax=69 / qpstep=4 / cplxblur=20.0 / qblur=0.5 / ip_ratio=1.40 / aq=3:0.80
Язык : English
Default : Нет
Forced : Нет

Аудио #1
Идентификатор : 2
Формат : AC-3
Формат/Информация : Audio Coding 3
Расширение режима : CM (complete main)
Параметр Endianness формата : Big
Идентификатор кодека : A_AC3
Продолжительность : 52 м.
Вид битрейта : Постоянный
Битрейт : 192 Кбит/сек
Каналы : 2 канала
Расположение каналов : Front: L R
Частота : 48,0 КГц
Частота кадров : 31,250 кадров/сек (1536 spf)
Метод сжатия : С потерями
Размер потока : 71,9 Мбайт (2%)
Заголовок : MVO ТВ КИНОСЕРИЯ
Язык : Russian
Default : Нет
Forced : Нет

Аудио #2
Идентификатор : 3
Формат : AC-3
Формат/Информация : Audio Coding 3
Расширение режима : CM (complete main)
Параметр Endianness формата : Big
Идентификатор кодека : A_AC3
Продолжительность : 52 м.
Вид битрейта : Постоянный
Битрейт : 448 Кбит/сек
Каналы : 6 каналов
Расположение каналов : Front: L C R, Side: L R, LFE
Частота : 48,0 КГц
Частота кадров : 31,250 кадров/сек (1536 spf)
Метод сжатия : С потерями
Размер потока : 168 Мбайт (5%)
Язык : English
Default : Нет
Forced : Нет



Скачать Изгнанники.Banished.(сезон.01).(Джеффри.Уокер.Дэниэл.Персивал).[2015.драма.история.BDRip].[1080p].[MVO]+[Eng].torrent без регистрации
Золото ЗОЛОТАЯ РАЗДАЧА! СКАЧАННОЕ НЕ ЗАСЧИТЫВАЕТСЯ! Золото
Дата: Зарегистрирован   [ Тип: внутренний ] Как тут cкачать?
MAGNET ссылка
MAGNET ссылка


Скачать .torrent

119 KB

Статус: проверено DHT
Скачан: торрент - 9 раз, раздача полностью - 4 раз
Размер: 23,43 GB
Оценка:  - (Голосов: 0)
Поблагодарили: 0
Поделиться ссылкой на эту раздачу с друзьями:
В контактеFacebookОдноклассникиTwitterLivejournalМой МирLiveinternet
 

 
Показать сообщения:    


Вы не можете начинать темы
Вы не можете отвечать на сообщения
Вы не можете редактировать свои сообщения
Вы не можете удалять свои сообщения
Вы не можете голосовать в опросах
Вы не можете прикреплять файлы к сообщениям
Вы можете скачивать файлы