Loading...
Error

Скачать Мое лето любви / My Summer of Love (Павел Павликовский) [2004, драма, мелодрама, экранизация, WEB-DL] [720p] [DVO]+[Оригинал Eng]+[Sub Eng] торрент без регистрации

Статистика раздачи
Размер:  2,93 GB   |    Скачан:  17 раз
Сидов:  1  [  0 KB/s  ]  
 
 
 
Автор Сообщение

Marsianka

[] 



Информация о фильме
Название: Мое лето любви
Оригинальное название: My Summer of Love
Год выхода: 2004
Жанр: драма, мелодрама, экранизация
Режиссер: Павел Павликовский

В ролях:
Натали Пресс — Mona, Эмили Блант — Tamsin, Пэдди Консидайн — Phil, Дин Эндрюс — Ricky, Мишель Бирн — Ricky's Wife, Пол Энтони-Барбер — Tamsin's Father, Линетт Эдвардс — Tamsin's Mother, Кэтрин Самнер — Sadie.

О фильме:
Мона, шестнадцатилетняя девушка, живёт в маленьком английском городке. Жизнь в городке, скучная и однообразная, стала для неё ещё более невыносима с тех пор, как её брат Фил стал новообращённым христианином. Бар, который он раньше держал, он превратил в место встреч и молитв своих новых соратников. Блуждая по окрестностям городка, Мона встречается с Тэмзин — девушкой-подростком, живущей неподалеку. Мать Тэмзин — успешная актриса, которой постоянно не бывает дома, как и отца-бизнесмена. Тэмзин тоже томится от скуки, живя в одиночестве в большом доме. Две противоположности находят в каждой нечто, что неожиданно сближает их. Они проводят вместе страстные, забавные, незабываемые дни! Но могут ли подруги полностью довериться друг другу?...



Страна: Великобритания
Студия: Apocalypso Pictures, Baker Street, BBC Films, Take Partnership, The Film Consortium, UK Film Council
Продолжительность: 01:26:40
Перевод: Профессиональный двухголосый, Оригинал

Файл
Качество: WEB-DL 720p
Видео: 1280x690 (1,85:1), 23.976 fps, MPEG-4 AVC, 3972 Kbps

Аудио #1: AC3, 384 Kbps, 48.0 KHz, 6 ch (Rus) Профессиональный двухголосый
Аудио #2: AC3, 384 Kbps, 48.0 KHz, 6 ch (Eng) Оригинал
Субтитры: Английские
Формат : Matroska
Версия формата : Version 2
Размер файла : 2,93 Гбайт
Продолжительность : 1 ч. 26 м.
Общий поток : 4836 Кбит/сек
Дата кодирования : UTC 2016-01-22 19:36:44
Программа кодирования : mkvmerge v5.4.0 ('Piper') built on Mar 10 2012 13:34:39
Библиотека кодирования : libebml v1.2.3 + libmatroska v1.3.0

Видео
Идентификатор : 1
Формат : AVC
Формат/Информация : Advanced Video Codec
Профиль формата : High@L3.1
Параметр CABAC формата : Нет
Параметр ReFrames формата : 2 кадра
Идентификатор кодека : V_MPEG4/ISO/AVC
Продолжительность : 1 ч. 26 м.
Битрейт : 3972 Кбит/сек
Ширина : 1280 пикселей
Высота : 690 пикселей
Соотношение сторон : 1,85:1
Режим частоты кадров : Постоянный
Частота кадров : 23,976 кадра/сек
Цветовое пространство : YUV
Субдискретизация насыщенности : 4:2:0
Битовая глубина : 8 бит
Тип развёртки : Прогрессивная
Бит/(Пиксели*Кадры) : 0.188
Размер потока : 2,40 Гбайт (82%)
Заголовок : My Summer of Love / Мое лето любви (2004)
Язык : English
Default : Да
Forced : Нет
Основные цвета : BT.709
Характеристики трансфера : BT.709
Коэффициенты матрицы : BT.709
colour_range : Limited

Аудио #1
Идентификатор : 2
Формат : AC-3
Формат/Информация : Audio Coding 3
Расширение режима : CM (complete main)
Параметр Endianness формата : Big
Идентификатор кодека : A_AC3
Продолжительность : 1 ч. 26 м.
Вид битрейта : Постоянный
Битрейт : 384 Кбит/сек
Каналы : 6 каналов
Расположение каналов : Front: L C R, Side: L R, LFE
Частота : 48,0 КГц
Битовая глубина : 16 бит
Метод сжатия : С потерями
Размер потока : 238 Мбайт (8%)
Заголовок : DVO (Russian)
Язык : Russian
Default : Да
Forced : Нет

Аудио #2
Идентификатор : 3
Формат : AC-3
Формат/Информация : Audio Coding 3
Расширение режима : CM (complete main)
Параметр Endianness формата : Big
Идентификатор кодека : A_AC3
Продолжительность : 1 ч. 26 м.
Вид битрейта : Постоянный
Битрейт : 384 Кбит/сек
Каналы : 6 каналов
Расположение каналов : Front: L C R, Side: L R, LFE
Частота : 48,0 КГц
Битовая глубина : 16 бит
Метод сжатия : С потерями
Размер потока : 238 Мбайт (8%)
Заголовок : Original (English)
Язык : English
Default : Нет
Forced : Нет

Текст
Идентификатор : 4
Формат : UTF-8
Идентификатор кодека : S_TEXT/UTF8
Идентификатор кодека/Информация : UTF-8 Plain Text
Заголовок : Eng
Язык : English
Default : Нет
Forced : Нет

Меню
00:00:00.000 : en:Main Titles
00:01:46.000 : en:Meeting Mona Lisa
00:04:49.000 : en:Spiritual Fulfilment
00:09:10.000 : en:"The Swan"
00:14:18.000 : en:Philosophical Views
00:16:37.000 : en:A Different Brother
00:20:44.000 : en:Alarming Distraction
00:24:48.000 : en:Crimes of Passion
00:28:57.000 : en:Up and Running
00:35:03.000 : en:Emotional Outpour
00:37:15.000 : en:Caught in the Moment
00:42:54.000 : en:Cruel Joke
00:47:19.000 : en:Reclaiming the Valley
00:52:44.000 : en:Communing
01:02:11.000 : en:Feeling God
01:09:30.000 : en:Evil Doings
01:16:29.000 : en:Playing a Part
01:24:08.000 : en:End Titles



Скачать Мое.лето.любви.My.Summer.of.Love.(Павел.Павликовский).[2004.драма.мелодрама.экранизация.WEB-DL].[720p].[DVO]+[Оригинал.Eng]+[Sub.Eng].torrent без регистрации
Золото ЗОЛОТАЯ РАЗДАЧА! СКАЧАННОЕ НЕ ЗАСЧИТЫВАЕТСЯ! Золото
Дата: Зарегистрирован   [ Тип: внутренний ] Как тут cкачать?
MAGNET ссылка
MAGNET ссылка


Скачать .torrent

16 KB

Статус: проверено DHT
Скачан: торрент - 17 раз, раздача полностью - 1 раз
Размер: 2,93 GB
Оценка:  - (Голосов: 0)
Поблагодарили: 0
Поделиться ссылкой на эту раздачу с друзьями:
В контактеFacebookОдноклассникиTwitterLivejournalМой МирLiveinternet
 

 
Показать сообщения:    


Вы не можете начинать темы
Вы не можете отвечать на сообщения
Вы не можете редактировать свои сообщения
Вы не можете удалять свои сообщения
Вы не можете голосовать в опросах
Вы не можете прикреплять файлы к сообщениям
Вы можете скачивать файлы