Loading...
Error

Скачать Тайное окно / Secret Window (Дэвид Кепп) [2004, триллер, детектив, WEB-DLRip-AVC] [Open Matte] [Dub]+[Sub Rus, Eng]x2 торрент без регистрации

Статистика раздачи
Размер:  2,18 GB   |    Скачан:  13 раз
Сидов:  1  [  0 KB/s  ]  
 
 
 
Автор Сообщение

Marsianka

[] 



Информация о фильме
Название: Тайное окно
Оригинальное название: Secret Window
Год выхода: 2004
Жанр: триллер, детектив
Режиссер: Дэвид Кепп
В ролях: Джонни Депп, Джон Туртурро, Мария Белло, Тимоти Хаттон, Чарльз С. Даттон, Лен Кариу, Джоан Хини, Джон Данн-Хилл, Власта Врана, Мэтт Холлэнд

О фильме:
Писатель Морт Рейни живет в доме на берегу. Ещё недавно у него была жена и карьера писателя, сейчас с женой он встречается только для того, чтобы в очередной раз отказаться подписать документы о разводе. С творчеством у Морта тоже не очень гладко, он начинает писать и тут же стирает написанное. Все дни напролет Морт только спит или смотрит на экран компьютера.

Но в этой его размеренной, тоскливой жизни появляется странный человек в черной шляпе. Назвавшись Кокни Шутером, он обвиняет Рейни в плагиате. Морт пытается вспомнить, как он писал названный Шутером рассказ, не мог ли он действительно взять чужую идею. Выясняя все факты, Рейни узнает, что Шутер написал свой рассказ через 2 года после его публикации в журнале. Морту нужно лишь найти копию журнала, и Шутер уйдет. Но до тех пор странный человек в черной шляпе будет преследовать писателя и его жену.



Страна: США
Студия: Columbia Pictures Corporation, Grand Slam Productions, Millennium Films, Pariah Entertainment Group
Продолжительность: 01:36:06
Перевод: Профессиональный (полное дублирование)[R5]

Файл
Качество: WEB-DLRip-AVC
Формат: MKV
Кодек: MPEG-4 AVC
Видео: 1024x576 (16:9), 23,976 fps, ~2800 Кbps
Аудио: АС3, 48,0 kHz, 6 ch, ~448.00 kbps
Субтитры: Русские, английские

x264 info: frame I:1072 Avg QP:13.39 size: 95016
x264 info: frame P:35721 Avg QP:16.37 size: 30107
x264 info: frame B:101449 Avg QP:17.80 size: 8285
x264 info: consecutive B-frames: 2.2% 4.5% 7.6% 62.4% 8.3% 12.3% 1.2% 1.3% 0.1% 0.1%

General
Unique ID : 298335003460927441992073084903090124352 (0xE0713B4E3A9397C51B1E8AB9CB417640)
Complete name : D:КИНОТайное окно.2004.Open.Matte.WEB_DLRIP-AVC.[-=DoMiNo=-].mkv
Format : Matroska
Format version : Version 4 / Version 2
File size : 2.18 GiB
Duration : 1 h 36 min
Overall bit rate : 3 251 kb/s
Movie name : Тайное окно
Deion : Писатель Морт Рейни живет в доме на берегу. Ещё недавно у него была жена и карьера писателя, сейчас с женой он встречается только для того, чтобы в очередной раз отказаться подписать документы о разводе. С творчеством у Морта тоже не очень гладко, он начинает писать и тут же стирает написанное. Все дни напролет Морт только спит или смотрит на экран компьютера. / / Но в этой его размеренной, тоскливой жизни появляется странный человек в черной шляпе. Назвавшись Кокни Шутером, он обвиняет Рейни в плагиате. Морт пытается вспомнить, как он писал названный Шутером рассказ, не мог ли он действительно взять чужую идею. Выясняя все факты, Рейни узнает, что Шутер написал свой рассказ через 2 года после его публикации в журнале. Морту нужно лишь найти копию журнала, и Шутер уйдет. Но до тех пор странный человек в черной шляпе будет преследовать писателя и его жену.
Writing application : XviD4PSP 7.0.427 DAILY
Writing library : Lavf57.71.100
ErrorDetectionType : Per level 1
Attachments : poster.jpg
ACTORS : Джонни Депп, Джон Туртурро, Мария Белло, Тимоти Хаттон, Чарльз С. Даттон, Лен Кариу, Джоан Хини, Джон Данн-Хилл, Власта Врана, Мэтт Холлэнд, Джиллиан Ферраби, Бронуэн Мэнтел, Элизабет Марло, Кайл Аллатт, Ричард Жютра, Кевин Вудхаус, Вито Филлипо, Сара Аллен, Изабель Чампу
COMPOSER : Филип Гласс, Джеф Дзанелли
COUNTRY : США
DATE : 2004
DIRECTOR : Дэвид Кепп
ENCODING_INFO : MATROSKA,WEBM > MKV Пользовательский / H264 > X264 VBR-2P 2800kbps Пользовательский / AC3 > COPY Безопасное
GENRE : триллер, детектив
HD_VIDEO : 1
IMDB_RATING : 6.60
ITUNEXTC : mpaa|PG-13|300|
Language : und
MEDIA_TYPE : 9
ORIGINAL_ACTORS : Johnny Depp, John Turturro, Maria Bello, Timothy Hutton, Charles S. Dutton, Len Cariou, Joan Heney, John Dunn-Hill (в титрах: John Dunn Hill), Vlasta Vrana, Matt Holland, Gillian Ferrabee, Bronwen Mantel, Elizabeth Marleau, Kyle Allatt, Richard Jutra, Kevin Woodhouse, Vito DeFilippo, Sarah Allen, Isabelle Champeau
ORIGINAL_TITLE : Secret Window
PRODUCER : Гэвин Полон, Эзра Свердлоу
RATING : 7.227
WRITER : Дэвид Кепп, Стивен Кинг

Video
ID : 1
Format : AVC
Format/Info : Advanced Video Codec
Format profile : High@L4.1
Format settings : CABAC / 10 Ref Frames
Format settings, CABAC : Yes
Format settings, ReFrames : 10 frames
Codec ID : V_MPEG4/ISO/AVC
Duration : 1 h 36 min
Bit rate : 2 800 kb/s
Width : 1 024 pixels
Height : 576 pixels
Display aspect ratio : 16:9
Frame rate mode : Constant
Frame rate : 23.976 (24000/1001) FPS
Color space : YUV
Chroma subsampling : 4:2:0
Bit depth : 8 bits
Scan type : Progressive
Bits/(Pixel*Frame) : 0.198
Stream size : 1.84 GiB (84%)
Title : RIP_BY_-=DoMiNo=-
Writing library : x264 core 152 r2851M ba24899
Encoding settings : cabac=1 / ref=10 / deblock=1:-3:-3 / analyse=0x3:0x133 / me=umh / subme=10 / psy=1 / psy_rd=1.00:0.50 / mixed_ref=1 / me_range=32 / chroma_me=1 / trellis=2 / 8x8dct=1 / cqm=0 / deadzone=21,11 / fast_pskip=1 / chroma_qp_offset=-4 / threads=6 / lookahead_threads=1 / sliced_threads=0 / nr=0 / decimate=1 / interlaced=0 / bluray_compat=0 / constrained_intra=0 / bframes=9 / b_pyramid=2 / b_adapt=2 / b_bias=0 / direct=3 / weightb=1 / open_gop=0 / weightp=2 / keyint=240 / keyint_min=24 / scenecut=40 / intra_refresh=0 / rc_lookahead=60 / rc=2pass / mbtree=1 / bitrate=2800 / ratetol=1.0 / qcomp=0.70 / qpmin=0 / qpmax=69 / qpstep=4 / cplxblur=20.0 / qblur=0.5 / ip_ratio=1.40 / aq=1:1.00
Language : English
Default : Yes
Forced : No
Color range : Limited
Color primaries : BT.709
Transfer characteristics : BT.709
Matrix coefficients : BT.709

Audio
ID : 2
Format : AC-3
Format/Info : Audio Coding 3
Codec ID : A_AC3
Duration : 1 h 36 min
Bit rate mode : Constant
Bit rate : 448 kb/s
Channel(s) : 6 channels
Channel positions : Front: L C R, Side: L R, LFE
Sampling rate : 48.0 kHz
Frame rate : 31.250 FPS (1536 SPF)
Bit depth : 16 bits
Compression mode : Lossy
Stream size : 308 MiB (14%)
Title : AC3 5.1 448Kbps (Дубляж - R5)
Language : Russian
Service kind : Complete Main
Default : Yes
Forced : No

Text #1
ID : 3
Format : UTF-8
Codec ID : S_TEXT/UTF8
Codec ID/Info : UTF-8 Plain Text
Duration : 1 h 32 min
Title : #1
Language : Russian
Default : Yes
Forced : No

Text #2
ID : 4
Format : UTF-8
Codec ID : S_TEXT/UTF8
Codec ID/Info : UTF-8 Plain Text
Duration : 1 h 35 min
Title : #2
Language : Russian
Default : No
Forced : No

Text #3
ID : 5
Format : UTF-8
Codec ID : S_TEXT/UTF8
Codec ID/Info : UTF-8 Plain Text
Duration : 1 h 32 min
Language : English
Default : No
Forced : No





Скачать Тайное.окно.Secret.Window.(Дэвид.Кепп).[2004.триллер.детектив.WEB-DLRip-AVC].[Open.Matte].[Dub]+[Sub.Rus.Eng]x2.torrent без регистрации
Золото ЗОЛОТАЯ РАЗДАЧА! СКАЧАННОЕ НЕ ЗАСЧИТЫВАЕТСЯ! Золото
Дата: Зарегистрирован   [ Тип: внутренний ] Как тут cкачать?
MAGNET ссылка
MAGNET ссылка


Скачать .torrent

12 KB

Статус: проверено DHT
Скачан: торрент - 13 раз, раздача полностью - 0 раз
Размер: 2,18 GB
Оценка:  - (Голосов: 0)
Поблагодарили: 0
Поделиться ссылкой на эту раздачу с друзьями:
В контактеFacebookОдноклассникиTwitterLivejournalМой МирLiveinternet
 

 
Показать сообщения:    


Вы не можете начинать темы
Вы не можете отвечать на сообщения
Вы не можете редактировать свои сообщения
Вы не можете удалять свои сообщения
Вы не можете голосовать в опросах
Вы не можете прикреплять файлы к сообщениям
Вы можете скачивать файлы