Loading...
Error

Скачать Список архива Ланъя / Список Ланъя / Lang ya bang (01-15 из 54) (Кун Шэн, Ли Сюэ) [2015, драма, исторический, WEBRip] [720p] [DVO (XDUB DORAMA)]+[Sub Chi] торрент без регистрации

Статистика раздачи
Размер:  8,8 GB   |    Скачан:  16 раз
Сидов:  1  [  0 KB/s  ]  
 
 
 
Автор Сообщение

МихаНЕзатор

[] 

Информация о фильме
Название: Список архива Ланъя / Список Ланъя
Оригинальное название: Lang ya bang
Год выхода: 2015
Жанр: драма, исторический
Режиссер: Кун Шэн, Ли Сюэ

В ролях: Ван Кай, Ху Гэ, Лю Тао, Виктор Хуан

О фильме: Китай. IV век. Самый разгар феодальной войны между династиями Северная Вэй и Южная Лян. Главный генерал династии Лян берет своего единственного 19-летнего сына Линь Шу на битву. Но в ходе политической игры его 70-тысячное войско терпит сокрушительное поражение. К счастью, Линь Шу удается спастись. В итоге молодой человек присоединяется к Альянсу Цзянцзо и возвращается в столицу под именем Мэй Чансу. В столице он сразу же оказывается в эпицентре политических интриг. Новоиспеченный Чансу начинает помогать своему другу, сыну императора Ву и заодно искать правду о том, как армия его отца попала в ловушку 12 лет назад. Снято по одноименному веб-роману писателя Хайянь.

Релиз от:

Страна: Китай
Продолжительность: ~ 45 мин. серия
Перевод: Любительский, многоголосый, закадровый (РГ "XDUB DORAMA", перевод на русский: фансаб-дуэт "ЛАРЧИК", закадровый текст читали: Koldun02, Gyllor, Elrid, Izanami, тайминг и работа со звуком: Izanami)

Файл
Кодек: V_MPEG4/ISO/AVC
Качество: WEBRip 720p
Видео: 1280x720 (16:9), 25.000 FPS, 1536 kb/s
Звук: mp3, 48.0 kHz, 2ch, 320 kb/s
Субтитры: китайские (хардсаб)

АНОНСЫ ПОПУЛЯРНЫХ РАЗДАЧ


Торрент обновлён, добавлена 15-я серия!
General
Unique ID : 225707882502185499520820718681522085727 (0xA9CDC1C8195C9929A19316CE9EA69F5F)
Complete name : Lang.ya.bang.EP01.720p.WEBRip.mkv
Format : Matroska
Format version : Version 2
File size : 602 MiB
Duration : 44 min 45 s
Overall bit rate : 1 881 kb/s
Encoded date : UTC 2017-11-14 18:25:30
Writing application : mkvmerge v4.2.0 ('No Talking') сборка от Jul 28 2010 18:38:23
Writing library : libebml v1.0.0 + libmatroska v1.0.0

Video
ID : 1
Format : AVC
Format/Info : Advanced Video Codec
Format profile : High@L3.1
Format settings, CABAC : Yes
Format settings, RefFrames : 4 frames
Muxing mode : Header stripping
Codec ID : V_MPEG4/ISO/AVC
Duration : 44 min 45 s
Bit rate : 1 536 kb/s
Width : 1 280 pixels
Height : 720 pixels
Display aspect ratio : 16:9
Frame rate mode : Constant
Frame rate : 25.000 FPS
Color space : YUV
Chroma subsampling : 4:2:0
Bit depth : 8 bits
Scan type : Progressive
Bits/(Pixel*Frame) : 0.067
Stream size : 488 MiB (81%)
Writing library : x264 core 148
Encoding settings : cabac=1 / ref=3 / deblock=1:0:0 / analyse=0x3:0x113 / me=hex / subme=7 / psy=1 / psy_rd=1.00:0.00 / mixed_ref=1 / me_range=16 / chroma_me=1 / trellis=1 / 8x8dct=1 / cqm=0 / deadzone=21,11 / fast_pskip=1 / chroma_qp_offset=-2 / threads=6 / lookahead_threads=1 / sliced_threads=0 / nr=0 / decimate=1 / interlaced=0 / bluray_compat=0 / constrained_intra=0 / bframes=3 / b_pyramid=2 / b_adapt=1 / b_bias=0 / direct=1 / weightb=1 / open_gop=0 / weightp=2 / keyint=250 / keyint_min=25 / scenecut=40 / intra_refresh=0 / rc_lookahead=40 / rc=abr / mbtree=1 / bitrate=1536 / ratetol=1.0 / qcomp=0.60 / qpmin=0 / qpmax=69 / qpstep=4 / ip_ratio=1.40 / aq=1:1.00
Default : Yes
Forced : No

Audio
ID : 2
Format : MPEG Audio
Format version : Version 1
Format profile : Layer 3
Mode : Joint stereo
Muxing mode : Header stripping
Codec ID : A_MPEG/L3
Codec ID/Hint : MP3
Duration : 44 min 45 s
Bit rate mode : Constant
Bit rate : 320 kb/s
Channel(s) : 2 channels
Sampling rate : 48.0 kHz
Compression mode : Lossy
Stream size : 102 MiB (17%)
Default : Yes
Forced : No



Скачать Список.архива.Ланъя.Список.Ланъя.Lang.ya.bang.(01-15.из.54).(Кун.Шэн.Ли.Сюэ).[2015.драма.исторический.WEBRip].[720p].[DVO.(XDUB.DORAMA)]+[Sub.Chi].torrent без регистрации
Золото ЗОЛОТАЯ РАЗДАЧА! СКАЧАННОЕ НЕ ЗАСЧИТЫВАЕТСЯ! Золото
Дата: Зарегистрирован   [ Тип: внутренний ] Как тут cкачать?
MAGNET ссылка
MAGNET ссылка


Скачать .torrent

46 KB

Статус: проверено DHT
Скачан: торрент - 16 раз, раздача полностью - 0 раз
Размер: 8,8 GB
Оценка:  - (Голосов: 0)
Поблагодарили: 0
Поделиться ссылкой на эту раздачу с друзьями:
В контактеFacebookОдноклассникиTwitterLivejournalМой МирLiveinternet
 

 
Показать сообщения:    


Вы не можете начинать темы
Вы не можете отвечать на сообщения
Вы не можете редактировать свои сообщения
Вы не можете удалять свои сообщения
Вы не можете голосовать в опросах
Вы не можете прикреплять файлы к сообщениям
Вы можете скачивать файлы