Loading...
Error

Скачать Ночной продавец (Валерий Рожнов) [2004, триллер, комедия, DVDRip-AVC] торрент без регистрации

Статистика раздачи
Размер:  1,81 GB   |    Скачан:  31 раз
Сидов:  1  [  0 KB/s  ]  
 
 
 
Автор Сообщение

Marsianka

[] 

Ночной продавец


Год выпуска: 2004
Жанр: триллер, комедия
Выпущено: Россия
Режиссер: Валерий Рожнов
В ролях: Павел Баршак, Виктор Сухоруков, Ингеборга Дапкунайте, Андрей Краско,
Вячеслав Разбегаев, Мария Шалаева, Андрей Мерзликин, Спартак Мишулин,
Константин Мурзенко, Юрий Нифонтов

О фильме: Его время — ночь. Его погода — дождь. Именно после дождливых ночей в городе находили истерзанные тела его жертв.
Именно в такую ночь студент Даня заступает на смену в круглосуточный магазинчик.
Даня — ночной продавец супермаркета. И угораздило же его польститься на жену хозяина, которая, пока муж играл в казино, решила развлечься с Даней!
Сыщик-милиционер, заглянув в магазин, поделился со студентом наблюдением, которое подсказывала ему сыщицкая интуиция: «В эту ночь маньяк обязательно снова выйдет на охоту…» Милиционер не ошибся: злодей действительно искал жертву — и потому тоже заглянул в ночной магазин…



Продолжительность: 01:25:06

Перевод: Не требуется
Субтитры: Нет

Кодек: х264
Качество: DVDRip-AVC
Видео: MPEG-4 AVC, 720х556@1024х556, 2600 Кбит/с, 25 fps
Аудио: Русский, AC3, 6h, 448 Кбит/с

x264 [info]: frame I:933 Avg QP:14.29 size: 95756
x264 [info]: frame P:26403 Avg QP:17.90 size: 30867
x264 [info]: frame B:100304 Avg QP:19.42 size: 7526

Общее
Уникальный идентификатор : 201930999064842467040714371211092115607 (0x97EA7EEB6E7D401EA555A0AD72694097)
Полное имя : E:Мои рипыНочной продавец 2004_DVDRip-AVC_KORSAR.mkv
Формат : Matroska
Версия формата : Version 2
Размер файла : 1,81 Гбайт
Продолжительность : 1 ч. 25 м.
Общий поток : 3050 Кбит/сек
Дата кодирования : UTC 2017-11-26 20:42:56
Программа кодирования : mkvmerge v5.8.0 ('No Sleep / Pillow') built on Sep 2 2012 15:37:04
Библиотека кодирования : libebml v1.2.3 + libmatroska v1.3.0

Видео
Идентификатор : 1
Формат : AVC
Формат/Информация : Advanced Video Codec
Профиль формата : High@L4.1
Настройки формата : CABAC / 15 Ref Frames
Параметр CABAC формата : Да
Параметр RefFrames формата : 15 кадров
Идентификатор кодека : V_MPEG4/ISO/AVC
Продолжительность : 1 ч. 25 м.
Битрейт : 2600 Кбит/сек
Ширина : 720 пикселей
Высота : 556 пикселей
Соотношение сторон : 1,85:1
Режим частоты кадров : Постоянный
Частота кадров : 25,000 кадров/сек
Цветовое пространство : YUV
Субдискретизация насыщенности : 4:2:0
Битовая глубина : 8 бит
Тип развёртки : Прогрессивная
Бит/(Пиксели*Кадры) : 0.260
Размер потока : 1,51 Гбайт (83%)
Библиотека кодирования : x264 core 152 r2851kMod ba24899
Настройки программы : cabac=1 / ref=15 / deblock=1:-2:-2 / analyse=0x3:0x133 / me=umh / subme=11 / psy=1 / fade_compensate=0.00 / psy_rd=1.05:0.10 / mixed_ref=1 / me_range=48 / chroma_me=1 / trellis=2 / 8x8dct=1 / cqm=0 / deadzone=21,11 / fast_pskip=0 / chroma_qp_offset=-3 / threads=12 / lookahead_threads=3 / sliced_threads=0 / nr=0 / decimate=0 / interlaced=0 / bluray_compat=0 / constrained_intra=0 / bframes=14 / b_pyramid=2 / b_adapt=2 / b_bias=0 / direct=3 / weightb=1 / open_gop=0 / weightp=2 / keyint=250 / keyint_min=25 / scenecut=40 / intra_refresh=0 / rc_lookahead=40 / rc=2pass / mbtree=0 / bitrate=2600 / ratetol=1.0 / qcomp=0.60 / qpmin=0 / qpmax=39 / qpstep=4 / cplxblur=20.0 / qblur=0.5 / vbv_maxrate=50000 / vbv_bufsize=62500 / nal_hrd=none / filler=0 / ip_ratio=1.40 / pb_ratio=1.30 / aq=1:1.00
Язык : English
Default : Да
Forced : Нет
Цветовой диапазон : Limited
Основные цвета : BT.601 PAL
Характеристики трансфера : BT.470 System B, BT.470 System G
Коэффициенты матрицы : BT.470 System B, BT.470 System G

Аудио
Идентификатор : 2
Формат : AC-3
Формат/Информация : Audio Coding 3
Параметр Endianness формата : Big
Идентификатор кодека : A_AC3
Продолжительность : 1 ч. 25 м.
Вид битрейта : Постоянный
Битрейт : 448 Кбит/сек
Каналы : 6 каналов
Расположение каналов : Front: L C R, Side: L R, LFE
Частота : 48,0 КГц
Частота кадров : 31,250 кадров/сек (1536 SPF)
Битовая глубина : 16 бит
Метод сжатия : С потерями
Размер потока : 273 Мбайт (15%)
Заголовок : Русский
Язык : Russian

Default : Да
Forced : Нет



Скачать Ночной.продавец.(Валерий.Рожнов).[2004.триллер.комедия.DVDRip-AVC].torrent без регистрации
Золото ЗОЛОТАЯ РАЗДАЧА! СКАЧАННОЕ НЕ ЗАСЧИТЫВАЕТСЯ! Золото
Дата: Зарегистрирован   [ Тип: внутренний ] Как тут cкачать?
MAGNET ссылка
MAGNET ссылка


Скачать .torrent

19 KB

Статус: проверено DHT
Скачан: торрент - 31 раз, раздача полностью - 72 раз
Размер: 1,81 GB
Оценка:  - (Голосов: 0)
Поблагодарили: 1
Поделиться ссылкой на эту раздачу с друзьями:
В контактеFacebookОдноклассникиTwitterLivejournalМой МирLiveinternet
 

 
Показать сообщения:    


Вы не можете начинать темы
Вы не можете отвечать на сообщения
Вы не можете редактировать свои сообщения
Вы не можете удалять свои сообщения
Вы не можете голосовать в опросах
Вы не можете прикреплять файлы к сообщениям
Вы можете скачивать файлы