Loading...
Error

Скачать Невероятные приключения итальянцев в России (Эльдар Рязанов) [1973, комедия, приключения, HDDVDRip-AVC] торрент без регистрации

Статистика раздачи
Размер:  746 MB   |    Скачан:  18 раз
Сидов:  1  [  0 KB/s  ]  
 
 
 
Автор Сообщение

Marsianka

[] 

Информация о фильме
Название: Невероятные приключения итальянцев в России
Год выхода: 1973
Жанр: комедия, приключения
Режиссер: Эльдар Рязанов
В ролях: Андрей Миронов, Нинетто Даволи, Антония Сантилли, Алигьеро Носкезе, Тано Чимароза, Джиджи Баллиста, Евгений Евстигнеев, Ольга Аросева, Лариса Виккел, Александр Лукьянов, Борис Рунге, Валериан Виноградов, Элла Некрасова, Юрий Шепелев, Антонина Максимова, Вадим Грачёв, Сергей Юртайкин, Зоя Исаева, Олег Белов, Юрий Михайлов, Александр Степанов

О фильме :
В одной из римских больниц скончалась русская эмигрантка. Старая дама, некогда эмигрировавшая из России, поведала своей внучке Ольге, что все ее огромное состояние спрятано в Ленинграде «под львом». Это обстоятельство явилось причиной срочного отлета в Ленинград всех тех, кто случайно или специально был посвящен в эту тайну. В СССР прибыли солидный врач, итальянский мафиози, два санитара, просто горожанин и внучка Ольга. А в Москве к ним присоединился еще и гид, который усложнил и так непростые поиски сокровищ…



Страна: СССР
Продолжительность: 01:38:08
Перевод: не требуется (русский)

Файл
Формат: MKV
Качество: HDDVDRip-AVC
Видео: MPEG-4 AVC, 720x520, ~ 985 Кбит/с
Аудио: AAC-LC, 2 ch, ~ 76 Кбит/с
Общее
Уникальный идентификатор : 241612201266788479176122307201544511458 (0xB5C4D13CDC3380DCA1FD801FFBA85FE2)
Полное имя : D:MOVIESUnbelievable Adventures of Italians in Russia.1973.ExKinoRay.mkv
Формат : Matroska
Версия формата : Version 4 / Version 2
Размер файла : 746 Мбайт
Продолжительность : 1 ч. 38 м.
Общий поток : 1063 Кбит/сек
Дата кодирования : UTC 2017-11-29 12:53:38
Программа кодирования : mkvmerge v15.0.0 ('Duel with the Devil') 64-bit
Библиотека кодирования : libebml v1.3.5 + libmatroska v1.4.5

Видео
Идентификатор : 1
Формат : AVC
Формат/Информация : Advanced Video Codec
Профиль формата : High@L4.1
Параметр CABAC формата : Да
Параметр RefFrames формата : 10 кадров
Идентификатор кодека : V_MPEG4/ISO/AVC
Продолжительность : 1 ч. 38 м.
Битрейт : 985 Кбит/сек
Ширина : 720 пикселей
Высота : 520 пикселей
Соотношение сторон : 1,385
Режим частоты кадров : Постоянный
Частота кадров : 25,000 кадров/сек
Цветовое пространство : YUV
Субдискретизация насыщенности : 4:2:0
Битовая глубина : 8 бит
Тип развёртки : Прогрессивная
Бит/(Пиксели*Кадры) : 0.105
Размер потока : 691 Мбайт (93%)
Библиотека кодирования : x264 core 152 r2851kMod ba24899
Настройки программы : cabac=1 / ref=10 / deblock=1:-3:-3 / analyse=0x3:0x133 / me=umh / subme=11 / psy=1 / fade_compensate=0.00 / psy_rd=1.00:0.10 / mixed_ref=1 / me_range=32 / chroma_me=1 / trellis=2 / 8x8dct=1 / cqm=0 / deadzone=21,11 / fast_pskip=0 / chroma_qp_offset=-3 / threads=6 / lookahead_threads=1 / sliced_threads=0 / nr=0 / decimate=0 / interlaced=0 / bluray_compat=0 / constrained_intra=0 / bframes=10 / b_pyramid=2 / b_adapt=2 / b_bias=0 / direct=3 / weightb=1 / open_gop=0 / weightp=2 / keyint=250 / keyint_min=24 / scenecut=40 / intra_refresh=0 / rc_lookahead=40 / rc=2pass / mbtree=1 / bitrate=985 / ratetol=1.0 / qcomp=0.60 / qpmin=0 / qpmax=69 / qpstep=4 / cplxblur=20.0 / qblur=0.5 / vbv_maxrate=50000 / vbv_bufsize=62500 / nal_hrd=none / filler=0 / ip_ratio=1.40 / aq=3:1.00
Default : Да
Forced : Нет

Аудио
Идентификатор : 2
Формат : AAC
Формат/Информация : Advanced Audio Codec
Профиль формата : LC
Идентификатор кодека : A_AAC
Продолжительность : 1 ч. 38 м.
Битрейт : 76,0 Кбит/сек
Каналы : 2 канала
Расположение каналов : Front: L R
Частота : 48,0 КГц
Частота кадров : 46,875 кадров/сек (1024 SPF)
Метод сжатия : С потерями
Задержка видео : 14 мс.
Размер потока : 53,3 Мбайт (7%)
Default : Да
Forced : Нет
Релиз от:



Скачать Невероятные.приключения.итальянцев.в.России.(Эльдар.Рязанов).[1973.комедия.приключения.HDDVDRip-AVC].torrent без регистрации
Золото ЗОЛОТАЯ РАЗДАЧА! СКАЧАННОЕ НЕ ЗАСЧИТЫВАЕТСЯ! Золото
Дата: Зарегистрирован   [ Тип: внутренний ] Как тут cкачать?
MAGNET ссылка
MAGNET ссылка


Скачать .torrent

16 KB

Статус: проверено DHT
Скачан: торрент - 18 раз, раздача полностью - 3 раз
Размер: 746 MB
Оценка:  - (Голосов: 0)
Поблагодарили: 1
Поделиться ссылкой на эту раздачу с друзьями:
В контактеFacebookОдноклассникиTwitterLivejournalМой МирLiveinternet
 

 
Показать сообщения:    


Вы не можете начинать темы
Вы не можете отвечать на сообщения
Вы не можете редактировать свои сообщения
Вы не можете удалять свои сообщения
Вы не можете голосовать в опросах
Вы не можете прикреплять файлы к сообщениям
Вы можете скачивать файлы