Loading...
Error

Скачать Белый Король / The White King (Alex Helfrecht, Йорг Титтел) [2016, фантастика, драма, WEB-DLRip] [720p] [MVO ( (GreenРай Studio))] торрент без регистрации

Статистика раздачи
Размер:  2,71 GB   |    Скачан:  42 раза
Сидов:  1  [  0 KB/s  ]  
 
 
 
Автор Сообщение

МихаНЕзатор

[] 

Информация о фильме
Наименование: Белый Король
Оригинальное наименование: The White King
Категория: фантастика, драма
Произведено: Великобритания, Oiffy, Proton Cinema
Режиссер постановщик: Alex Helfrecht, Йорг Титтел

В главных ролях: Оливия Уильямс, Джонатан Прайс, Фиона Шоу, Агнесс Дейн, Грета Скакки, Оулавюр Дарри Оулафссон, Клэр-Хоуп Эшити, Росс Патридж, Джеффри Постлтуэйт, Дерек де Линт

О фильме: Мрачная антиутопия о стране победившего тоталитаризма, в которой пытается выжить 12-летний сын «предателя». После ареста отца юный герой и его мать клеймятся изгоями, и страх перед всеобщим презрением и жестокой системой проигрывает надежде на воссоединение семьи.



Файл
Качество: WEB-DLRip 720p
Видео данные: MKV, 1280x536 (2.40:1), 24.000 fps, 4000 Кбит/с
Аудио данные: AC3, 2 ch, 384 Кбит/с
Перевод: Любительский многоголосый (GreenРай Studio)
Продолжительность: 01:29:05

АНОНСЫ ПОПУЛЯРНЫХ РАЗДАЧ

Над релизом работали:
Состав дикторов: Илья Кочетков и Нана Саркисян, Татьяна Трусевич
Руководитель проекта и координатор: Евгений Овчаренко
Организатор и координатор: Никита Марков
Пиар менеджер студии: Игорь Обухов
Техническая поддержка: Александр Методий
Над переводом работала: Анастасия Кушнир-Бешанова
General
Unique ID : 219732702821385938671806362394619831280 (0xA54EFAADAB5E69C5B9099E8F79E863F0)
Complete name : D:Белый КорольThe.White.King.2016.P.WEB-DL.720p.mkv
Format : Matroska
Format version : Version 4 / Version 2
File size : 2.71 GiB
Duration : 1 h 29 min
Overall bit rate mode : Constant
Overall bit rate : 4 323 kb/s
Encoded date : UTC 2017-11-23 19:24:06
Writing application : mkvmerge v8.3.0 ('Over the Horizon') 64bit
Writing library : libebml v1.3.1 + libmatroska v1.4.2

Video
ID : 1
Format : AVC
Format/Info : Advanced Video Codec
Format profile : Main@L3.1
Format settings, CABAC : Yes
Format settings, ReFrames : 3 frames
Format settings, GOP : M=4, N=15
Codec ID : V_MPEG4/ISO/AVC
Duration : 1 h 29 min
Bit rate mode : Constant
Bit rate : 4 000 kb/s
Width : 1 280 pixels
Height : 536 pixels
Display aspect ratio : 2.40:1
Frame rate mode : Constant
Frame rate : 24.000 FPS
Standard : NTSC
Color space : YUV
Chroma subsampling : 4:2:0
Bit depth : 8 bits
Scan type : Progressive
Bits/(Pixel*Frame) : 0.243
Stream size : 2.47 GiB (91%)
Language : English
Default : Yes
Forced : No
Color range : Limited

Audio
ID : 2
Format : AC-3
Format/Info : Audio Coding 3
Mode extension : CM (complete main)
Format settings, Endianness : Big
Codec ID : A_AC3
Duration : 1 h 29 min
Bit rate mode : Constant
Bit rate : 384 kb/s
Channel(s) : 2 channels
Channel positions : Front: L R
Sampling rate : 48.0 kHz
Frame rate : 31.250 FPS (1536 spf)
Compression mode : Lossy
Stream size : 247 MiB (9%)
Default : Yes
Forced : No



Скачать Белый.Король.The.White.King.(Alex.Helfrecht.Йорг.Титтел).[2016.фантастика.драма.WEB-DLRip].[720p].[MVO.(.(GreenРай.Studio))].torrent без регистрации
Золото ЗОЛОТАЯ РАЗДАЧА! СКАЧАННОЕ НЕ ЗАСЧИТЫВАЕТСЯ! Золото
Дата: Зарегистрирован   [ Тип: внутренний ] Как тут cкачать?
MAGNET ссылка
MAGNET ссылка


Скачать .torrent

15 KB

Статус: проверено DHT
Скачан: торрент - 42 раз, раздача полностью - 46 раз
Размер: 2,71 GB
Оценка:  - (Голосов: 0)
Поблагодарили: 1
Поделиться ссылкой на эту раздачу с друзьями:
В контактеFacebookОдноклассникиTwitterLivejournalМой МирLiveinternet
 

 
Показать сообщения:    


Вы не можете начинать темы
Вы не можете отвечать на сообщения
Вы не можете редактировать свои сообщения
Вы не можете удалять свои сообщения
Вы не можете голосовать в опросах
Вы не можете прикреплять файлы к сообщениям
Вы можете скачивать файлы