Loading...
Error

Скачать Голем / The Limehouse Golem (Хуан Карлос Медина) [2016, детектив, ужасы, триллер, BDRip-AVC] [Dub (лицензия iTunes)] торрент без регистрации

Статистика раздачи
Размер:  1,41 GB   |    Скачан:  93 раза
Сидов:  10  [  0 KB/s  ]  
 
 
 
Автор Сообщение

МихаНЕзатор

[] 


Голем
The Limehouse Golem

«До Джека Потрошителя у страха было другое имя»



Страна: Великобритания
Жанр: ужасы, триллер
Год выпуска: 2016
Режиссер: Хуан Карлос Медина / Juan Carlos Medina

В ролях: Оливия Кук, Билл Найи, Дуглас Бут, Эдди Марсан, Мария Вальверде, Сэм Рид, Пол Риттер, Дэниэл Мейс, Питер Салливан, Адам Браун, Генри Гудман, Морган Уоткинс

Описание: Викторианский Лондон, 1880 год. Опасный район города Лаймхауз потрясает серия жестоких убийств. Напуганные до смерти жители полагают, что в этих чудовищных и безжалостных преступлениях замешан не кто иной, как голем - глиняное существо из мифологии, оживляемое при помощи магии. Панический страх растет, убийства продолжаются. Полиция не знает, что делать, и в качестве козла отпущения главным в этом деле назначается опытный детектив, инспектор Килдэр.

Релиз:

Автор рипа: stalkerok

Продолжительность: 01:48:37
Перевод: Профессиональный (полное дублирование) [iTunes]
Субтитры: нет
Оригинальная аудиодорожка: нет

Качество видео: BDRip-AVC [The.Limehouse.Golem.2016.BDRemux.1080p.NNMClub]
Формат видео: MKV
Видео кодек: AVC
Аудио кодек: AC3
Видео: 1472 Кбит/сек, 1122*472 (2,40:1), в 24,000 кадра/сек, AVC
Аудио: русский, 384 Кбит/сек, 48 КГц, 5.1, AC3
Навигация по главам: есть

АНОНСЫ ПОПУЛЯРНЫХ РАЗДАЧ


x264 [info]: frame I:1550 Avg QP:14.02 size: 64301
x264 [info]: frame P:30016 Avg QP:17.84 size: 17684
x264 [info]: frame B:124852 Avg QP:19.46 size: 4553

Общее
Уникальный идентификатор : 219979169401159723647105377492472799385 (0xA57E726B41CD8AD3885556B5D8C5A099)
Полное имя : M:!Rips2017The Limehouse GolemiTunesThe.Limehouse.Golem.2016.BDRip-AVC.RUS.stalkerok.new-team..mkv
Формат : Matroska
Версия формата : Version 4 / Version 2
Размер файла : 1,41 Гбайт
Продолжительность : 1 ч. 48 м.
Общий поток : 1857 Кбит/сек
Название фильма : The Limehouse Golem (2016) (Rip by stalkerok)
Дата кодирования : UTC 2017-11-25 13:44:42
Программа кодирования : mkvmerge v8.6.1 ('Flying') 64bit
Библиотека кодирования : libebml v1.3.3 + libmatroska v1.4.4

Видео
Идентификатор : 1
Формат : AVC
Формат/Информация : Advanced Video Codec
Профиль формата : High@L4.1
Параметр CABAC формата : Да
Параметр ReFrames формата : 14 кадров
Идентификатор кодека : V_MPEG4/ISO/AVC
Продолжительность : 1 ч. 48 м.
Битрейт : 1472 Кбит/сек
Ширина : 1122 пикселя
Высота : 472 пикселя
Соотношение сторон : 2,40:1
Режим частоты кадров : Постоянный
Частота кадров : 24,000 кадра/сек
Цветовое пространство : YUV
Субдискретизация насыщенности : 4:2:0
Битовая глубина : 8 бит
Тип развёртки : Прогрессивная
Бит/(Пиксели*Кадры) : 0.116
Размер потока : 1,12 Гбайт (79%)
Заголовок : The Limehouse Golem (2016) (Rip by stalkerok)
Библиотека кодирования : x264 core 150 r2833kMod df79067
Настройки программы : cabac=1 / ref=14 / deblock=1:-3:-2 / analyse=0x3:0x133 / me=umh / subme=11 / psy=1 / fade_compensate=0.00 / psy_rd=1.00:0.00 / mixed_ref=1 / me_range=32 / chroma_me=1 / trellis=2 / 8x8dct=1 / cqm=0 / deadzone=21,11 / fast_pskip=0 / chroma_qp_offset=-2 / threads=12 / lookahead_threads=3 / sliced_threads=0 / nr=0 / decimate=0 / interlaced=0 / bluray_compat=0 / constrained_intra=0 / bframes=14 / b_pyramid=2 / b_adapt=2 / b_bias=0 / direct=3 / weightb=1 / open_gop=0 / weightp=2 / keyint=240 / keyint_min=23 / scenecut=40 / intra_refresh=0 / rc_lookahead=60 / rc=2pass / mbtree=0 / bitrate=1472 / ratetol=1.0 / qcomp=0.65 / qpmin=0 / qpmax=69 / qpstep=4 / cplxblur=20.0 / qblur=0.5 / vbv_maxrate=50000 / vbv_bufsize=62500 / nal_hrd=none / filler=0 / ip_ratio=1.40 / pb_ratio=1.30 / aq=3:0.85 / zones=148397,156417,q=32
Default : Да
Forced : Нет

Аудио
Идентификатор : 2
Формат : AC-3
Формат/Информация : Audio Coding 3
Расширение режима : CM (complete main)
Параметр Endianness формата : Big
Идентификатор кодека : A_AC3
Продолжительность : 1 ч. 48 м.
Вид битрейта : Постоянный
Битрейт : 384 Кбит/сек
Каналы : 6 каналов
Расположение каналов : Front: L C R, Side: L R, LFE
Частота : 48,0 КГц
Частота кадров : 31,250 кадров/сек (1536 spf)
Метод сжатия : С потерями
Размер потока : 298 Мбайт (21%)
Язык : Russian
Default : Да
Forced : Нет

Меню
00:00:00.000 : en:00:00:00.000
00:08:02.375 : en:00:08:02.375
00:17:45.333 : en:00:17:45.333
00:24:37.958 : en:00:24:37.958
00:36:20.125 : en:00:36:20.125
00:46:17.750 : en:00:46:17.750
00:55:19.625 : en:00:55:19.625
01:07:52.333 : en:01:07:52.333
01:15:51.292 : en:01:15:51.292
01:24:56.125 : en:01:24:56.125
01:31:49.208 : en:01:31:49.208
01:38:13.208 : en:01:38:13.208



Скачать Голем.The.Limehouse.Golem.(Хуан.Карлос.Медина).[2016.детектив.ужасы.триллер.BDRip-AVC].[Dub.(лицензия.iTunes)].torrent без регистрации
Золото ЗОЛОТАЯ РАЗДАЧА! СКАЧАННОЕ НЕ ЗАСЧИТЫВАЕТСЯ! Золото
Дата: Зарегистрирован   [ Тип: внешний ] Как тут cкачать?
MAGNET ссылка
MAGNET ссылка


Скачать .torrent

15 KB

Статус: проверено DHT
Скачан: торрент - 93 раз, раздача полностью - 131 раз
Размер: 1,41 GB
Оценка:  5 (Голосов: 1)
Поблагодарили: 8
Поделиться ссылкой на эту раздачу с друзьями:
В контактеFacebookОдноклассникиTwitterLivejournalМой МирLiveinternet
 

 
Показать сообщения:    


Вы не можете начинать темы
Вы не можете отвечать на сообщения
Вы не можете редактировать свои сообщения
Вы не можете удалять свои сообщения
Вы не можете голосовать в опросах
Вы не можете прикреплять файлы к сообщениям
Вы можете скачивать файлы