Loading...
Error

Скачать Лара Крофт: Расхитительница гробниц / Lara Croft: Tomb Raider (Саймон Уэст) [2001, фэнтези, боевик, приключения, HD-DVD Remux] [1080p] [Dub Rus]+[AVO (Гаврилов)]+[DVO Rus]+[MVO (Гаврилов)]+[Оригинал Eng]+[Sub Rus] торрент без регистрации

Статистика раздачи
Размер:  16,68 GB   |    Скачан:  24 раза
Сидов:  1  [  0 KB/s  ]  
 
 
 
Автор Сообщение

Marsianka

[] 


Название: Лара Крофт: Расхитительница гробниц
Оригинальное название: Lara Croft: Tomb Raider
Год выхода: 2001
Жанр: фэнтези, боевик, приключения
Режиссер: Саймон Уэст
В ролях: Анджелина Джоли, Джон Войт, Иэн Глен, Ноа Тейлор, Дэниэл Крэйг, Ричард Джонсон, Крис Барри, Джулиан Райнд-Татт, Лесли Филлипс, Роберт Филлипс

О фильме:
Она - само совершенство! На нашей планете нет женщины, которая могла бы сравниться с ней. Она - божественно прекрасна, невероятно умна и потрясающе отважна. Она владеет всеми видами рукопашного боя, изумительно стреляет из любых видов оружия и способна выжить в самых экстремальных условиях. Эта девушка - дочь лорда. Ее имя - леди Лара Крофт. И пусть трепещут злодеи, которые попытаются встать у нее на пути...



Страна: США, Великобритания, Япония, Германия
Студия: Paramount Pictures
Продолжительность: 01:40:32
профессиональный (дублированный), профессиональный (двухголосый), авторский (одноголосый)
Субтитры: русские
Файл
Формат: MKV
Качество: HD-DVD Remux 1080p
Видео: VC-1 / 1920х1080 / 20375 kbps / 23,976 fps

Аудио 1: Русский, Dolby Digital Audio, 5.1, 48 KHz, 448 kbps | Дубляж
Аудио 2: Русский, Dolby Digital Audio, 5.1, 48 KHz, 448 kbps | Авторский (Гаврилов)
Аудио 3: Русский, DTS, 5.1, 48 KHz, 24 bit, 768 kbps | Двухголосый (Гланц и Королёва)
Аудио 4: Украинский, Dolby Digital Audio, 2.0, 48 KHz, 192 kbps | Многоголосый(Гаврилов)
Аудио 5: Английский, DTS, 5.1, 48 KHz, 24 bit, 1536 kbps | Оригинал
Format : Matroska
Format version : Version 2
File size : 16.7 GiB
Duration : 1 h 40 min
Overall bit rate : 23.8 Mb/s
Movie name : Lara Croft Tomb Raider (2001) HD-DVD Remux 1080p
Encoded date : UTC 2017-11-29 21:02:31
Writing application : mkvmerge v4.9.1 ('Ich will') сборка от Jul 11 2011 23:53:15
Writing library : libebml v1.2.1 + libmatroska v1.1.1

Video
ID : 1
Format : VC-1
Format profile : Advanced@L3
Codec ID : V_MS/VFW/FOURCC / WVC1
Codec ID/Hint : Microsoft
Duration : 1 h 40 min
Bit rate : 19.9 Mb/s
Width : 1 920 pixels
Height : 1 080 pixels
Display aspect ratio : 16:9
Frame rate mode : Constant
Frame rate : 23.976 (24000/1001) FPS
Color space : YUV
Chroma subsampling : 4:2:0
Bit depth : 8 bits
Scan type : Progressive
Compression mode : Lossy
Bits/(Pixel*Frame) : 0.401
Stream size : 14.0 GiB (84%)
Title : Лара Крофт: Расхитительница гробниц
Language : English
Default : Yes
Forced : No

Audio #1
ID : 2
Format : AC-3
Format/Info : Audio Coding 3
Format settings, Endianness : Big
Codec ID : A_AC3
Duration : 1 h 40 min
Bit rate mode : Constant
Bit rate : 448 kb/s
Channel(s) : 6 channels
Channel positions : Front: L C R, Side: L R, LFE
Sampling rate : 48.0 kHz
Frame rate : 31.250 FPS (1536 SPF)
Bit depth : 16 bits
Compression mode : Lossy
Stream size : 322 MiB (2%)
Title : Дубляж
Language : Russian
Service kind : Complete Main
Default : Yes
Forced : No

Audio #2
ID : 3
Format : AC-3
Format/Info : Audio Coding 3
Format settings, Endianness : Big
Codec ID : A_AC3
Duration : 1 h 40 min
Bit rate mode : Constant
Bit rate : 448 kb/s
Channel(s) : 6 channels
Channel positions : Front: L C R, Side: L R, LFE
Sampling rate : 48.0 kHz
Frame rate : 31.250 FPS (1536 SPF)
Bit depth : 16 bits
Compression mode : Lossy
Stream size : 322 MiB (2%)
Title : Гаврилов
Language : Russian
Service kind : Complete Main
Default : No
Forced : No

Audio #3
ID : 4
Format : DTS
Format/Info : Digital Theater Systems
Mode : 16
Format settings, Endianness : Big
Codec ID : A_DTS
Duration : 1 h 40 min
Bit rate mode : Constant
Bit rate : 768 kb/s
Channel(s) : 6 channels
Channel positions : Front: L C R, Side: L R, LFE
Sampling rate : 48.0 kHz
Frame rate : 93.750 FPS (512 SPF)
Bit depth : 24 bits
Compression mode : Lossy
Stream size : 552 MiB (3%)
Title : Гланц и Королёва
Language : Russian
Default : No
Forced : No

Audio #4
ID : 5
Format : AC-3
Format/Info : Audio Coding 3
Format settings, Endianness : Big
Codec ID : A_AC3
Duration : 1 h 40 min
Bit rate mode : Constant
Bit rate : 192 kb/s
Channel(s) : 2 channels
Channel positions : Front: L R
Sampling rate : 48.0 kHz
Frame rate : 31.250 FPS (1536 SPF)
Bit depth : 16 bits
Compression mode : Lossy
Stream size : 138 MiB (1%)
Title : Многоголосый (ICTV)
Language : Ukrainian
Service kind : Complete Main
Default : No
Forced : No

Audio #5
ID : 6
Format : DTS
Format/Info : Digital Theater Systems
Mode : 16
Format settings, Endianness : Big
Codec ID : A_DTS
Duration : 1 h 40 min
Bit rate mode : Constant
Bit rate : 1 509 kb/s
Channel(s) : 6 channels
Channel positions : Front: L C R, Side: L R, LFE
Sampling rate : 48.0 kHz
Frame rate : 93.750 FPS (512 SPF)
Bit depth : 24 bits
Compression mode : Lossy
Stream size : 1.06 GiB (6%)
Title : Оригинал
Language : English
Default : No
Forced : No

Text
ID : 7
Format : PGS
Muxing mode : zlib
Codec ID : S_HDMV/PGS
Codec ID/Info : Picture based subtitle format used on BDs/HD-DVDs
Language : Russian
Default : No
Forced : No

Menu
00:00:00.000 : :Chapter 01
00:07:22.817 : :Chapter 02
00:15:04.361 : :Chapter 03
00:23:16.353 : :Chapter 04
00:34:45.666 : :Chapter 05
00:43:10.546 : :Chapter 06
00:50:03.834 : :Chapter 07
00:59:46.124 : :Chapter 08
01:07:53.652 : :Chapter 09
01:15:58.845 : :Chapter 10
01:22:32.280 : :Chapter 11
01:31:22.894 : :Chapter 12



Скачать Лара.Крофт.Расхитительница.гробниц.Lara.Croft.Tomb.Raider.(Саймон.Уэст).[2001.фэнтези.боевик.приключения.HD-DVD.Remux].[1080p].[Dub.Rus]+[AVO.(Гаврилов)]+[DVO.Rus]+[MVO.(Гаврилов)]+[Оригинал.Eng]+[Sub.Rus].torrent без регистрации
Золото ЗОЛОТАЯ РАЗДАЧА! СКАЧАННОЕ НЕ ЗАСЧИТЫВАЕТСЯ! Золото
Дата: Зарегистрирован   [ Тип: внутренний ] Как тут cкачать?
MAGNET ссылка
MAGNET ссылка


Скачать .torrent

84 KB

Статус: проверено DHT
Скачан: торрент - 24 раз, раздача полностью - 4 раз
Размер: 16,68 GB
Оценка:  5 (Голосов: 1)
Поблагодарили: 2
Поделиться ссылкой на эту раздачу с друзьями:
В контактеFacebookОдноклассникиTwitterLivejournalМой МирLiveinternet
 

 
Показать сообщения:    


Вы не можете начинать темы
Вы не можете отвечать на сообщения
Вы не можете редактировать свои сообщения
Вы не можете удалять свои сообщения
Вы не можете голосовать в опросах
Вы не можете прикреплять файлы к сообщениям
Вы можете скачивать файлы