Loading...
Error

Скачать Преисподняя / Brimstone (Мартин Кулховен) [2016, триллер, детектив, вестерн, BDRip] [1080p] [MVO (лицензия)] торрент без регистрации

Статистика раздачи
Размер:  7,75 GB   |    Скачан:  60 раз
Сидов:  29  [  0 KB/s  ]  
 
 
 
Автор Сообщение

МихаНЕзатор

[] 



✘ Преисподняя ✘


Информация о фильме
✦ Год выхода: 2016
✦ Название: Преисподняя
✦ Жанр: Триллер, детектив, вестерн
✦ Оригинальное название: Brimstone
✦ Режиссер: Мартин Кулховен

✦ В ролях: Дакота Фэннинг, Кит Харингтон, Кэрис ван Хаутен, Гай Пирс, Пол Андерсон, Эмилия Джонс, Карла Юри, Джек Рот, Тиго Гернандт, Наоми Баттрик

Описание фильма История о девушке по имени Лиз, которая пытается сбежать от своего темного прошлого и скрывается от преследования «дьявольского» проповедника.

Релиз от:


✦ Выпущено: Нидерланды, Франция, Германия, Бельгия, Швеция, Великобритания
✦ Продолжительность: 02:28:32
✦ Перевод: Профессиональный (многоголосый, закадровый) - || Лицензия ||

Информация о файле
✦ Формат:| MKV | x264 |
✦ Качество: BDRip 1080p
✦ Видео: X264/MPEG4-AVC | 1920x804 (2.40:1) | ~6830 kbps | 23,976 fps
✦ Аудио Rus: AC3 | 48 KHz | 5.1 (Front: L С R Side: L R) + LFE | ~640 kbps
✦ Субтитры: || отсутствуют ||

АНОНСЫ ПОПУЛЯРНЫХ РАЗДАЧ

Общее
Уникальный идентификатор : 226296225457480894727841297908944022078 (0xAA3F115433251A148F2E8A07BC9F2A3E)
Полное имя : X:0000Brimstone.2016.BDRip.1080p.(qqss44).mkv
Формат : Matroska
Версия формата : Version 2
Размер файла : 7,75 Гбайт
Продолжительность : 2 ч. 28 м.
Общий поток : 7465 Кбит/сек
Название фильма : Brimstone.2016.BDRip.1080p.(qqss44)
Дата кодирования : UTC 2017-11-21 10:53:58
Программа кодирования : mkvmerge v5.8.0 ('No Sleep / Pillow') built on Sep 2 2012 15:37:04
Библиотека кодирования : libebml v1.2.3 + libmatroska v1.3.0

Видео
Идентификатор : 1
Формат : AVC
Формат/Информация : Advanced Video Codec
Профиль формата : High@L4.1
Параметр CABAC формата : Да
Параметр ReFrames формата : 5 кадров
Идентификатор кодека : V_MPEG4/ISO/AVC
Продолжительность : 2 ч. 28 м.
Битрейт : 6830 Кбит/сек
Ширина : 1920 пикселей
Высота : 804 пикселя
Соотношение сторон : 2,40:1
Режим частоты кадров : Постоянный
Частота кадров : 23,976 (24000/1001) кадра/сек
Цветовое пространство : YUV
Субдискретизация насыщенности : 4:2:0
Битовая глубина : 8 бит
Тип развёртки : Прогрессивная
Бит/(Пиксели*Кадры) : 0.185
Размер потока : 6,93 Гбайт (89%)
Заголовок : Brimstone.2016.BDRip.1080p.(qqss44)
Библиотека кодирования : x264 core 148 r2744kMod b97ae06
Настройки программы : cabac=1 / ref=5 / deblock=1:-3:-3 / analyse=0x3:0x113 / me=umh / subme=11 / psy=1 / fade_compensate=0.00 / psy_rd=1.00:0.00 / mixed_ref=1 / me_range=32 / chroma_me=1 / trellis=2 / 8x8dct=1 / cqm=0 / deadzone=21,11 / fast_pskip=0 / chroma_qp_offset=-2 / threads=12 / lookahead_threads=3 / sliced_threads=0 / nr=0 / decimate=0 / interlaced=0 / bluray_compat=0 / constrained_intra=0 / bframes=10 / b_pyramid=2 / b_adapt=2 / b_bias=0 / direct=3 / weightb=1 / open_gop=0 / weightp=2 / keyint=240 / keyint_min=23 / scenecut=40 / intra_refresh=0 / rc=2pass / mbtree=0 / bitrate=6830 / ratetol=1.0 / qcomp=0.65 / qpmin=0 / qpmax=69 / qpstep=4 / cplxblur=20.0 / qblur=0.5 / ip_ratio=1.40 / pb_ratio=1.30 / aq=3:0.70
Язык : English
Default : Да
Forced : Нет

Аудио
Идентификатор : 2
Формат : AC-3
Формат/Информация : Audio Coding 3
Расширение режима : CM (complete main)
Параметр Endianness формата : Big
Идентификатор кодека : A_AC3
Продолжительность : 2 ч. 28 м.
Вид битрейта : Постоянный
Битрейт : 640 Кбит/сек
Каналы : 6 каналов
Расположение каналов : Front: L C R, Side: L R, LFE
Частота : 48,0 КГц
Частота кадров : 31,250 кадров/сек (1536 spf)
Метод сжатия : С потерями
Размер потока : 680 Мбайт (9%)
Язык : Russian
Default : Да
Forced : Нет

Меню
00:00:00.000 : en:00:00:00.000
00:04:29.851 : en:00:04:29.851
00:11:51.918 : en:00:11:51.918
00:19:58.488 : en:00:19:58.488
00:25:06.212 : en:00:25:06.212
00:32:22.190 : en:00:32:22.190
00:42:25.041 : en:00:42:25.041
00:48:21.148 : en:00:48:21.148
00:55:44.340 : en:00:55:44.340
01:01:14.253 : en:01:01:14.253
01:06:42.039 : en:01:06:42.039
01:17:13.962 : en:01:17:13.962
01:24:38.155 : en:01:24:38.155
01:32:47.310 : en:01:32:47.310
01:39:57.240 : en:01:39:57.240
01:49:04.787 : en:01:49:04.787
01:56:10.630 : en:01:56:10.630
02:02:54.867 : en:02:02:54.867
02:13:38.176 : en:02:13:38.176
02:20:17.908 : en:02:20:17.908



Скачать Преисподняя.Brimstone.(Мартин.Кулховен).[2016.триллер.детектив.вестерн.BDRip].[1080p].[MVO.(лицензия)].torrent без регистрации
Золото ЗОЛОТАЯ РАЗДАЧА! СКАЧАННОЕ НЕ ЗАСЧИТЫВАЕТСЯ! Золото
Дата: Зарегистрирован   [ Тип: внешний ] Как тут cкачать?
MAGNET ссылка
MAGNET ссылка


Скачать .torrent

40 KB

Статус: проверено DHT
Скачан: торрент - 60 раз, раздача полностью - 292 раз
Размер: 7,75 GB
Оценка:  - (Голосов: 0)
Поблагодарили: 4
Поделиться ссылкой на эту раздачу с друзьями:
В контактеFacebookОдноклассникиTwitterLivejournalМой МирLiveinternet
 

 
Показать сообщения:    


Вы не можете начинать темы
Вы не можете отвечать на сообщения
Вы не можете редактировать свои сообщения
Вы не можете удалять свои сообщения
Вы не можете голосовать в опросах
Вы не можете прикреплять файлы к сообщениям
Вы можете скачивать файлы