Loading...
Error

Скачать Звериная натура / Human Nature (Мишель Гондри) [2001, драма, комедия, BDRip] [1080p] [MVO]+[Sub Rus] торрент без регистрации

Статистика раздачи
Размер:  9,01 GB   |    Скачан:  7 раз
Сидов:  2  [  0 KB/s  ]   Личеров:  1  [  0 KB/s  ]  
 
 
 
Автор Сообщение

Marsianka

[] 

Информация о фильме
Название: Звериная натура
Оригинальное название: Human Nature
Год выхода: 2001
Жанр: драма, комедия
Режиссер: Мишель Гондри
В ролях: Патриция Аркетт, Рис Айфанс, Тим Роббинс, Кен Маги, Сай Ричардсон, Дэвид Варшофски, Хилари Дафф, Стэнли ДеСантис, Питер Динклэдж, Тоби Хасс

О фильме:
Лила страдает врожденным дефектом — у нее повышенная волосатость тела. Повышенная настолько, что даже в медицинской энциклопедии рядом с описанием этого феномена помещена ее фотография. Пытаясь найти себя, Лила долгое время жила в лесу и даже написала несколько книг о природе и месте человека в ней, но в жизни всегда настает момент, когда самке больше всего нужна пара.И пару Лила находит в профессоре Натане Бронфмане — педантичном зануде, изучающим проблему обучения мышей хорошим манерам. Но однажды на лесной прогулке они натыкаются на дикаря, воспитанного человеком, считавшим себя обезьяной. Натан видит в этом возможность проиллюстрировать свою теорию обучения существ, но самого Паффа, как он окрестил находку, никто не спросил, надо ли ему учиться.



Страна: Франция, США
Студия: Beverly Detroit, Fine Line Features
Продолжительность: 01:36:11
Перевод: Профессиональный многоголосый, закадровый

Файл
Кодек: h.264
Качество: BDRip 1080p
Видео: MPEG-4 AVC, 11511 Кбит/с, 1920x1040, 23,976 кадр/с

Русский (AC3, 6 ch, 384 Кбит/с) / Профессиональный многоголосый
Английский (DTS, 6 ch, 1509 Кбит/с)
Субтитры: Русские
Семпл
Большое спасибо за Blu-ray FREEDONOR
BDRip Silverok
Сохранены главы как на Blu-ray
General
Unique ID : 198897484889134822103422817615738958894 (0x95A2431F9CFB1B9F99370D31BBE1F42E)
Complete name : D:uTorrentZverinaja.natura.2001.BDRip.1080p.MediaClub.mkv
Format : Matroska
Format version : Version 4 / Version 2
File size : 9.01 GiB
Duration : 1 h 36 min
Overall bit rate : 13.4 Mb/s
Encoded date : UTC 2017-12-01 17:48:45 / UTC 2017-11-25T09:34:01Z
Writing application : mkvmerge v17.0.0 ('Be Ur Friend') 64-bit
Writing library : libebml v1.3.5 + libmatroska v1.4.8 / Lavf57.7.2

Video
ID : 1
Format : AVC
Format/Info : Advanced Video Codec
Format profile : High@L4.1
Format settings : CABAC / 4 Ref Frames
Format settings, CABAC : Yes
Format settings, RefFrames : 4 frames
Codec ID : V_MPEG4/ISO/AVC
Duration : 1 h 36 min
Bit rate : 11.5 Mb/s
Width : 1 920 pixels
Height : 1 040 pixels
Display aspect ratio : 1.85:1
Frame rate mode : Constant
Frame rate : 23.976 (24000/1001) FPS
Color space : YUV
Chroma subsampling : 4:2:0
Bit depth : 8 bits
Scan type : Progressive
Bits/(Pixel*Frame) : 0.240
Stream size : 7.56 GiB (84%)
Title : BDRip by Silverok
Writing library : x264 core 148 r2708 86b7198
Encoding settings : cabac=1 / ref=4 / deblock=1:-3:-3 / analyse=0x3:0x113 / me=umh / subme=11 / psy=1 / psy_rd=1.00:0.00 / mixed_ref=1 / me_range=32 / chroma_me=1 / trellis=2 / 8x8dct=1 / cqm=0 / deadzone=21,11 / fast_pskip=1 / chroma_qp_offset=-2 / threads=12 / lookahead_threads=1 / sliced_threads=0 / nr=0 / decimate=0 / interlaced=0 / bluray_compat=0 / constrained_intra=0 / bframes=10 / b_pyramid=2 / b_adapt=1 / b_bias=0 / direct=1 / weightb=1 / open_gop=0 / weightp=2 / keyint=240 / keyint_min=24 / scenecut=40 / intra_refresh=0 / rc_lookahead=40 / rc=2pass / mbtree=1 / bitrate=11511 / ratetol=1.0 / qcomp=0.60 / qpmin=0 / qpmax=69 / qpstep=4 / cplxblur=20.0 / qblur=0.5 / vbv_maxrate=62500 / vbv_bufsize=78125 / nal_hrd=none / filler=0 / ip_ratio=1.40 / aq=1:1.00
Default : Yes
Forced : No
Color range : Limited
Color primaries : BT.709
Transfer characteristics : BT.709
Matrix coefficients : BT.709
Statistics Tags Issue : mkvmerge v17.0.0 ('Be Ur Friend') 64-bit 2017-12-01 17:48:45 / mkvmerge v17.0.0 ('Be Ur Friend') 64-bit 2017-12-01 17:48:45 / UTC 2017-11-25T09:34:01Z
FromStats_BitRate : 11509923
FromStats_Duration : 01:36:11.766000000
FromStats_FrameCount : 138383
FromStats_StreamSize : 8304073360

Audio #1
ID : 2
Format : AC-3
Format/Info : Audio Coding 3
Codec ID : A_AC3
Duration : 1 h 36 min
Bit rate mode : Constant
Bit rate : 384 kb/s
Channel(s) : 6 channels
Channel positions : Front: L C R, Side: L R, LFE
Sampling rate : 48.0 kHz
Frame rate : 31.250 FPS (1536 SPF)
Bit depth : 16 bits
Compression mode : Lossy
Stream size : 264 MiB (3%)
Title : Профессиональный многоголосый, закадровый
Language : Russian
Service kind : Complete Main
Default : Yes
Forced : No
Statistics Tags Issue : mkvmerge v17.0.0 ('Be Ur Friend') 64-bit 2017-12-01 17:48:45 / mkvmerge v17.0.0 ('Be Ur Friend') 64-bit 2017-12-01 17:48:45 / UTC 2017-11-25T09:34:01Z
FromStats_BitRate : 384000
FromStats_Duration : 01:36:11.776000000
FromStats_FrameCount : 180368
FromStats_StreamSize : 277045248

Audio #2
ID : 3
Format : DTS
Format/Info : Digital Theater Systems
Codec ID : A_DTS
Duration : 1 h 36 min
Bit rate mode : Constant
Bit rate : 1 509 kb/s
Channel(s) : 6 channels
Channel positions : Front: L C R, Side: L R, LFE
Sampling rate : 48.0 kHz
Frame rate : 93.750 FPS (512 SPF)
Bit depth : 16 bits
Compression mode : Lossy
Stream size : 1.01 GiB (11%)
Language : English
Default : No
Forced : No
Statistics Tags Issue : mkvmerge v17.0.0 ('Be Ur Friend') 64-bit 2017-12-01 17:48:45 / mkvmerge v17.0.0 ('Be Ur Friend') 64-bit 2017-12-01 17:48:45 / UTC 2017-11-25T09:34:01Z
FromStats_BitRate : 1508999
FromStats_Duration : 01:36:11.766000000
FromStats_FrameCount : 541103
FromStats_StreamSize : 1088699236

Text
ID : 4
Format : UTF-8
Codec ID : S_TEXT/UTF8
Codec ID/Info : UTF-8 Plain Text
Language : Russian
Default : Yes
Forced : No
Statistics Tags Issue : mkvmerge v17.0.0 ('Be Ur Friend') 64-bit 2017-12-01 17:48:45 / mkvmerge v17.0.0 ('Be Ur Friend') 64-bit 2017-12-01 17:48:45 / UTC 2017-11-25T09:34:01Z
FromStats_BitRate : 88
FromStats_Duration : 01:32:09.523000000
FromStats_FrameCount : 782
FromStats_StreamSize : 60908

Menu
00:00:00.000 : :Chapter 1
00:03:23.245 : :Chapter 2
00:09:19.267 : :Chapter 3
00:16:07.800 : :Chapter 4
00:20:18.384 : :Chapter 5
00:25:40.831 : :Chapter 6
00:30:44.134 : :Chapter 7
00:36:45.704 : :Chapter 8
00:42:45.229 : :Chapter 9
00:46:37.211 : :Chapter 10
00:52:27.895 : :Chapter 11
00:57:57.057 : :Chapter 12
01:02:28.870 : :Chapter 13
01:08:04.664 : :Chapter 14
01:13:01.669 : :Chapter 15
01:17:50.416 : :Chapter 16
01:24:34.069 : :Chapter 17
01:28:56.331 : :Chapter 18
Релиз от: | Silverok



Скачать Звериная.натура.Human.Nature.(Мишель.Гондри).[2001.драма.комедия.BDRip].[1080p].[MVO]+[Sub.Rus].torrent без регистрации
Золото ЗОЛОТАЯ РАЗДАЧА! СКАЧАННОЕ НЕ ЗАСЧИТЫВАЕТСЯ! Золото
Дата: Зарегистрирован   [ Тип: внешний ] Как тут cкачать?
MAGNET ссылка
MAGNET ссылка


Скачать .torrent

24 KB

Статус: проверено DHT
Скачан: торрент - 7 раз, раздача полностью - 1 раз
Размер: 9,01 GB
Оценка:  - (Голосов: 0)
Поблагодарили: 0
Поделиться ссылкой на эту раздачу с друзьями:
В контактеFacebookОдноклассникиTwitterLivejournalМой МирLiveinternet
 

 
Показать сообщения:    


Вы не можете начинать темы
Вы не можете отвечать на сообщения
Вы не можете редактировать свои сообщения
Вы не можете удалять свои сообщения
Вы не можете голосовать в опросах
Вы не можете прикреплять файлы к сообщениям
Вы можете скачивать файлы