Loading...
Error

Скачать Пандорум / Pandorum (Кристиан Альварт) [2009, ужасы, фантастика, боевик, триллер, детектив, BDRip] [720p] [iPad] [Dub] торрент без регистрации

Статистика раздачи
Размер:  2,29 GB   |    Скачан:  5 раз
Сидов:  2  [  0 KB/s  ]  
 
 
 
Автор Сообщение

Marsianka

[] 

Год выпуска: 2009
Оригинальное название: Pandorum
Страна: Германия, Великобритания
Жанр: ужасы, фантастика, боевик, триллер, детектив
Возраст: 16+

Режиссер: Кристиан Альварт

В ролях: Дэннис Куэйд, Бен Фостер, Кэм Жиганде, Антье Трауэ, Кунг Ле, Эдди Роус, Норман Ридус, Андре Хеннике, Фридерике Кемптер, Нильс-Бруно Шмидт, Дельфина Шийо, Вотан Вильке Мёринг, Доменико Д’Амброзио, Джон Фостер, Джефф Баррелл, Янгзом Брауен, Альбрехт Марко, Давид Жатарски, Нико Марквардт, Дон Джинес, Дэвид П. Джонсон

Описание: В безднах космоса движется звездолет. Два члена команды, пробудившиеся от гиперсна, оказываются в сложной ситуации: оборудование не работает, вспомнить они ничего не могут. Какова была их миссия? Сколько времени прошло? Где они? Кто они? На все эти вопросы у них нет ответов. К тому же, на корабле обнаруживаются чужие — злобные воины, которые крушат все на своем пути.

У космических путешественников очень мало времени. Теперь для них собственные жизни — не самое главное, ибо только от них двоих, возможно, зависит спасение человечества. Нужно любой ценой восстановить управление кораблем, пока загадочный Пандорум не взял власть в свои руки.



Продолжительность: 01:48:05
Перевод: Дублированный
Оригинальная дорожка: нет

Автор рипа:

Качество видео: BDRip 720p Исходник: Blu-Ray (1080p) Формат: mp4
Видео кодек: MPEG-4 AVC Аудио кодек: AAC
Видео: 1280x544 (2.35:1) at 23.976 fps, AVC at 2 871 kbps avg, 0.172 bit/pixel
Аудио №1 Rus: 48.0 KHz, AAC, 2 ch, 160.0 Kbps
Субтитры: нет
Навигация по главам: есть
Размер: 2.29 GiB
avs [info]: 1280x544p 1:1 @ 24000/1001 fps (cfr)
x264 [info]: using SAR=1/1
x264 [info]: using cpu capabilities: MMX2 SSE2Fast SSSE3 Cache64
x264 [info]: profile High, level 4.1
x264 [info]: frame I:1546 Avg QP:15.89 size: 97354
x264 [info]: frame P:32948 Avg QP:19.14 size: 28055
x264 [info]: frame B:121002 Avg QP:20.90 size: 10351
x264 [info]: consecutive B-frames: 2.7% 2.7% 6.1% 15.4% 17.6% 40.0% 8.4% 4.2% 2.8%
x264 [info]: mb I I16..4: 6.8% 72.3% 20.9%
x264 [info]: mb P I16..4: 2.0% 10.0% 1.2% P16..4: 43.9% 20.0% 16.0% 0.0% 0.0% skip: 6.8%
x264 [info]: mb B I16..4: 0.1% 1.0% 0.1% B16..8: 44.6% 7.5% 1.7% direct: 5.9% skip:39.1% L0:45.6% L1:48.5% BI: 5.9%
x264 [info]: 8x8 transform intra:76.3% inter:63.7%
x264 [info]: coded y,uvDC,uvAC intra: 77.1% 84.4% 62.3% inter: 22.9% 26.8% 4.2%
x264 [info]: i16 v,h,dc,p: 50% 14% 7% 29%
x264 [info]: i8 v,h,dc,ddl,ddr,vr,hd,vl,hu: 13% 12% 27% 6% 9% 8% 8% 8% 8%
x264 [info]: i4 v,h,dc,ddl,ddr,vr,hd,vl,hu: 20% 16% 16% 7% 10% 9% 9% 7% 7%
x264 [info]: i8c dc,h,v,p: 54% 17% 18% 11%
x264 [info]: Weighted P-Frames: Y:8.5% UV:6.0%
x264 [info]: ref P L0: 47.5% 8.1% 17.4% 7.3% 5.7% 4.4% 3.7% 2.1% 1.9% 1.7% 0.2% 0.0%
x264 [info]: ref B L0: 72.3% 11.6% 6.4% 3.1% 2.3% 1.9% 1.5% 0.7% 0.2%
x264 [info]: ref B L1: 93.5% 6.5%
x264 [info]: kb/s:2870.84
encoded 155496 frames, 1.69 fps, 2870.84 kb/s
General
Complete name : ...Pandorum_2009_KinoGadget.mp4
Format : MPEG-4
Format profile : Base Media
Codec ID : isom (isom)
File size : 2.29 GiB
Duration : 1 h 48 min
Overall bit rate mode : Variable
Overall bit rate : 3 039 kb/s
Movie name : Пандорум | KinoGadget
Performer : Кристиан Альварт
Director : Кристиан Альварт
Actor : Дэннис Куэйд / Бен Фостер / Кэм Жиганде / Антье Трауэ / Кунг Ле / Эдди Роус / Норман Ридус / Андре Хеннике / Фридерике Кемптер / Нильс-Бруно Шмидт / Дельфина Шийо
Screenplay by : Трейвис Миллоу / Кристиан Альварт
Producer : Пол У. С. Андерсон / Джереми Болт / Роберт Кульцер
Genre : Action, Horror, Thriller
ContentType : Short Film
Recorded date : 2009
Encoded date : UTC 2017-12-05 08:03:26
Tagged date : UTC 2017-12-06 16:31:59
Cover : Yes
ContentRating : mpaa|R|400|
LongDeion : В безднах космоса движется звездолет. Два члена команды, пробудившиеся от гиперсна, оказываются в сложной ситуации: оборудование не работает, вспомнить они ничего не могут. Какова была их миссия? Сколько времени прошло? Где они? Кто они? На все эти вопросы у них нет ответов. К тому же, на корабле обнаруживаются чужие — злобные воины, которые крушат все на своем пути.
HDVideo : Yes

Video
ID : 1
Format : AVC
Format/Info : Advanced Video Codec
Format profile : High@L4.1
Format settings : CABAC / 10 Ref Frames
Format settings, CABAC : Yes
Format settings, ReFrames : 10 frames
Codec ID : avc1
Codec ID/Info : Advanced Video Coding
Duration : 1 h 48 min
Bit rate : 2 871 kb/s
Maximum bit rate : 30.7 Mb/s
Width : 1 280 pixels
Height : 544 pixels
Display aspect ratio : 2.35:1
Frame rate mode : Constant
Frame rate : 23.976 (24000/1001) FPS
Color space : YUV
Chroma subsampling : 4:2:0
Bit depth : 8 bits
Scan type : Progressive
Bits/(Pixel*Frame) : 0.172
Stream size : 2.17 GiB (94%)
Writing library : x264 core 152 r2851 ba24899
Encoding settings : cabac=1 / ref=10 / deblock=1:-2:-1 / analyse=0x3:0x113 / me=umh / subme=7 / psy=1 / psy_rd=1.00:0.00 / mixed_ref=1 / me_range=32 / chroma_me=1 / trellis=2 / 8x8dct=1 / cqm=0 / deadzone=21,11 / fast_pskip=0 / chroma_qp_offset=-2 / threads=3 / lookahead_threads=1 / sliced_threads=0 / nr=0 / decimate=1 / interlaced=0 / bluray_compat=0 / constrained_intra=0 / bframes=8 / b_pyramid=2 / b_adapt=2 / b_bias=0 / direct=1 / weightb=1 / open_gop=0 / weightp=2 / keyint=250 / keyint_min=25 / scenecut=40 / intra_refresh=0 / rc_lookahead=60 / rc=crf / mbtree=1 / crf=19.0 / qcomp=0.60 / qpmin=0 / qpmax=69 / qpstep=4 / vbv_maxrate=62500 / vbv_bufsize=78125 / crf_max=0.0 / nal_hrd=none / filler=0 / ip_ratio=1.40 / aq=1:1.00
Encoded date : UTC 2017-12-04 20:42:12
Tagged date : UTC 2017-12-05 08:04:28

Audio
ID : 2
Format : AAC
Format/Info : Advanced Audio Codec
Format profile : LC
Codec ID : mp4a-40-2
Duration : 1 h 48 min
Bit rate mode : Variable
Bit rate : 160 kb/s
Maximum bit rate : 165 kb/s
Channel(s) : 2 channels
Channel positions : Front: L R
Sampling rate : 48.0 kHz
Frame rate : 46.875 FPS (1024 SPF)
Compression mode : Lossy
Stream size : 124 MiB (5%)
Language : Russian
Encoded date : UTC 2017-12-04 20:49:14
Tagged date : UTC 2017-12-05 08:04:28

Menu
Данный рип предназначен для просмотра на мобильных гаджетах с поддержкой формата mp4




Скачать Пандорум.Pandorum.(Кристиан.Альварт).[2009.ужасы.фантастика.боевик.триллер.детектив.BDRip].[720p].[iPad].[Dub].torrent без регистрации
Золото ЗОЛОТАЯ РАЗДАЧА! СКАЧАННОЕ НЕ ЗАСЧИТЫВАЕТСЯ! Золото
Дата: Зарегистрирован   [ Тип: внешний ] Как тут cкачать?
MAGNET ссылка
MAGNET ссылка


Скачать .torrent

12 KB

Статус: проверено DHT
Скачан: торрент - 5 раз, раздача полностью - 1 раз
Размер: 2,29 GB
Оценка:  5 (Голосов: 1)
Поблагодарили: 1
Поделиться ссылкой на эту раздачу с друзьями:
В контактеFacebookОдноклассникиTwitterLivejournalМой МирLiveinternet
 

 
Показать сообщения:    


Вы не можете начинать темы
Вы не можете отвечать на сообщения
Вы не можете редактировать свои сообщения
Вы не можете удалять свои сообщения
Вы не можете голосовать в опросах
Вы не можете прикреплять файлы к сообщениям
Вы можете скачивать файлы