Loading...
Error

Скачать Пираты Карибского моря: Сундук мертвеца / Pirates of the Caribbean: Dead Man's Chest (Гор Вербински) [2006, фэнтези, боевик, приключения, WEBRip] [1080p] [Open Matte] [Dub]x2+[DVO]x2+[AVO]x2+[Eng]+[Sub]x3 торрент без регистрации

Статистика раздачи
Размер:  13,34 GB   |    Скачан:  2 раза
Сидов:  1  [  0 KB/s  ]  
 
 
 
Автор Сообщение

Marsianka

[] 

Информация о фильме
Название: Пираты Карибского моря: Сундук мертвеца
Оригинальное название: Pirates of the Caribbean: Dead Man's Chest
Год выпуска: 2006
Жанр: фэнтези, боевик, приключения
Режиссер: Гор Вербински
В ролях: Джонни Депп (Jack Sparrow), Орландо Блум (Will Turner), Кира Найтли (Elizabeth Swann), Джек Девенпорт (Norrington), Билл Найи (Davy Jones), Стеллан Скарсгард (Bootstrap Bill), Кевин МакНэлли (Gibbs), Ли Аренберг (Pintel), Макензи Крук (Ragetti), Том Холландер (Cutler Beckett), Джонатан Прайс (Governor Weatherby Swann), Дэвид Бэйли (Cotton)

О фильме:
Вновь оказавшись в ирреальном мире, лихой капитан Джек Воробей неожиданно узнает, что является должником легендарного капитана «Летучего Голландца» Дэйви Джонса. Джек должен в кратчайшие сроки решить эту проблему, иначе ему грозит вечное проклятие и рабское существование после смерти. Вдобавок ко всему, срывается свадьба Уилла Тернера и Элизабет Суонн, которые вынуждены составить Джеку компанию в его злоключениях...



MPAA: PG-13 - Детям до 13 лет просмотр не желателен

Страна: США
Студия: Jerry Bruckheimer Films, Second Mate Productions, Walt Disney Pictures
Продолжительность: 02:30:39
Перевод: Профессиональный (дублированный), Профессиональный (двухголосый, закадровый), Авторский (одноголосый, закадровый)

Релиз: | maksnew

Файл
Качество: WEBRip 1080p
Формат: Matroska
Видео: 1920x1080 at 23.976 fps, x264, ~5100 kbps avg
Аудио#1: Russian: 48 kHz, AC3, 3/2 (L,C,R,l,r) + LFE ch, ~640 kbps avg |Дубляж, Blu-ray CEE|
Аудио#2: Russian: 48 kHz, АС3, 3/2 (L,C,R,l,r) + LFE ch, ~448 kbps avg |Двухголосый закадровый, Tycoon Studio|
Аудио#3: Russian: 48 kHz, DTS, 3/2 (L,C,R,l,r) + LFE ch, ~1509 kbps avg |Двухголосый закадровый, П.Гланц и И.Королёва|
Аудио#4: Russian: 48 kHz, DTS, 3/2 (L,C,R,l,r) + LFE ch, ~1509 kbps avg |Авторский, А.Гаврилов|
Аудио#5: Russian: 48 kHz, DTS, 3/2 (L,C,R,l,r) + LFE ch, ~1509 kbps avg |Авторский, В.Королёв|
Аудио#6: Ukrainian: 48 kHz, AC3, 3/2 (L,C,R,l,r) + LFE ch, ~640 kbps avg |Дубляж|
Аудио#7: English: 48 kHz, DTS, 3/2 (L,C,R,l,r) + LFE ch, ~1509 kbps avg
Субтитры: Russian, Ukrainian, English
***Исходник с онлайн кинотеатра.
***Видеоряд локализован.
Вторая и третья части «пиратской трилогии» снимались одновременно. Совместный бюджет картин составил сумму в районе 450 миллионов долларов.
Кире Найтли, во время подготовки к роли в фильме «Домино», пришлось постричься под мальчика. В связи с данным обстоятельством на съемках «Сундука мертвеца» Кире пришлось прибегнуть к процедуре наращивания волос.
Высота гигантского колеса, использованного в ходе съемок, составила 5,5 м, а вес - 815 кг.
К выходу фильма в прокат студия Уолта Диснея произвела небольшую перепланировку одноименного аттракциона в Диснейлэнде, сделав частью аттракциона капитанов Джека Воробья, Барбосу и Дэви Джонса, главного злодея сиквела. Видоизмененный аттракцион был запущен в день премьеры картины, 7 июля.
В рамках рекламной кампании, посвященной выходу картины в прокат, в июне 2006 года макет корабля «Летучий голландец», использованный в ходе съемок, был отбуксирован на частный остров «Castaway Cay», принадлежащий студии. Каждый посетитель острова имеет возможность взглянуть на эту грандиозную конструкцию.
Билл Найи исполнил роль Дэви Джонса в специальном костюме, ориентированном на использование технологии «motion capture». По окончании съемок внешний облик Дэви Джонса был практически полностью нарисован на компьютере.
В ходе дебютного уикенда картине удалось установить новый рекорд североамериканского проката – касса первого уикенда составила 135,6 млн. долларов. Предыдущим обладателем рекорда на протяжении последних четырех лет являлся «Человек-паук» (114,8 млн. долларов).
Первая картина студии Уолта Диснея, в которой фигурирует обновленный логотип кинокомпании.
Единственным полноценным кораблем, использованным в ходе съемок сиквелов, является «Черная жемчужина». Все остальные корабли, за исключением «Интерприда» из первой картины, были представлены в виде декораций, помещенных на плавучие баржи.
Игра, в которую играют Уилл Тернер и Дэви Джонс, носит название «Лгун» (Liar`s Dice). Эта разновидность игры в кости приближается к карточному покеру, имеющимися в ней элементами блефа.
Досмотрите финальные титры до конца, т. к. после них следует небольшая сцена.
Музыка, которая играет во время драки в пабе на Тортуге, - «Fisher`s Hornpipe».
Человек-моллюск говорит на кантонском наречии, после того как лишился головы.
Когда на борту судна появляется слово «Тортуга», оно написано точно таким же шрифтом, как и логотип компании «Disney».
Во время съёмок фильма вся съёмочная группа была эвакуирована в Лос-Анджелес из-за урагана Уилма.
В сценах на Тортуге были использованы кадры, снятые для первой части, но не попавшие в окончательный монтаж.
На роль Дэви Джонса рассматривалась кандидатура Кристофера Уокена.
Джонни Депп и Тим Бертон часто сотрудничают друг с другом. Бертон также принял небольшое участие в работе над данной картиной, сделав несколько набросков для дизайна внешнего вида нескольких членов команды «Летучего голландца».
Секундное появление коня в лодке в начале фильма доставила немало мучений режиссёру, т. к. конь отказывался спокойно стоять в ней.
Фраза Джека Воробья «Баночка с землицей, баночка с землицей» актёрам была неизвестна, поэтому удивление на их лицах подлинное.
На роль Дэйви Джонса кроме самого Билла Найи, также пробовались Джим Бродбент, Иэн Глен и Ричард Э. Грант.
В фильме впервые была использована система «iMocap», которая использует методы компьютерного зрения для отслеживания действий актёров на съемочной площадке. Эта система использована при создании Дэйви Джонса и членов экипажа его судна.
Гитарист группы «The Rolling Stones» Кит Ричардс должен был исполнить эпизодическую роль отца Джека Воробья, но был вынужден отказаться от участия в проекте в связи с насыщенным графиком гастролей музыкального коллектива. Тем не менее, Кит снялся в последующих частях франшизы.
Идея приковать Джека к кораблю принадлежала Кире Найтли.
Гор Вербински не сказал актерам, что будет происходить с клеткой из костей, т. к. хотел добиться от них естественной реакции при раскачивании клетки из стороны в сторону.
Когда матросы дерутся за платье Элизабет, один из них говорит о призраке женщины, которая убила себя незадолго до своей свадьбы. Данный сюжет повторяет сюжет диснеевского аттракциона «Особняк с приведениями» (The Haunted Mansion).
Появление капитана Барбоссы в концовке фильма стало приятной неожиданностью не только для зрителей, но также и для актеров. Перед съёмками финальной сцены, Гор Вербински объявил, что вниз по лестнице спустится Анамария (Зои Салдана), поэтому удивление на лицах актеров подлинное.
В сцене, где капитан корабля, на который пробралась Элизабет, жалуется на налоги и сборы Ост-Индийской компании, фигурирует документ с перечислением портовых тарифов. В списке значатся четыре позиции, напротив которых стоят тарифы в процентах - 7%, 10%, 8% и 6 %, а ниже под чертой итоговая сумма - 32%, хотя 7+10+8+6=31.
Общее
Уникальный идентификатор : 197217140810683031324950795182392359127 (0x945EA3C399A980B898815B1BB79638D7)
Полное имя : Pirates of the Caribbean Dead Man's Chest (2006) WEB-DL 1080p [Open Matte] -BLUEBIRD.mkv
Формат : Matroska
Версия формата : Version 4 / Version 2
Размер файла : 13,3 Гбайт
Продолжительность : 2 ч. 30 м.
Общий поток : 12,7 Мбит/сек
Дата кодирования : UTC 2016-12-26 09:35:35
Программа кодирования : mkvmerge v9.6.0 ('Slave To Your Mind') 64bit
Библиотека кодирования : libebml v1.3.4 + libmatroska v1.4.5

Видео
Идентификатор : 1
Формат : AVC
Формат/Информация : Advanced Video Codec
Профиль формата : High@L4.1
Параметр CABAC формата : Да
Параметр ReFrames формата : 4 кадра
Идентификатор кодека : V_MPEG4/ISO/AVC
Продолжительность : 2 ч. 30 м.
Битрейт : 4650 Кбит/сек
Номинальный битрейт : 5120 Кбит/сек
Ширина : 1920 пикселей
Высота : 1080 пикселей
Соотношение сторон : 16:9
Режим частоты кадров : Постоянный
Частота кадров : 23,976 кадра/сек
Цветовое пространство : YUV
Субдискретизация насыщенности : 4:2:0
Битовая глубина : 8 бит
Тип развёртки : Прогрессивная
Бит/(Пиксели*Кадры) : 0.094
Размер потока : 4,90 Гбайт (37%)
Библиотека кодирования : x264 core 142
Настройки программы : cabac=1 / ref=3 / deblock=1:0:0 / analyse=0x3:0x113 / me=hex / subme=7 / psy=1 / psy_rd=1.00:0.00 / mixed_ref=1 / me_range=16 / chroma_me=1 / trellis=1 / 8x8dct=1 / cqm=0 / deadzone=21,11 / fast_pskip=1 / chroma_qp_offset=-2 / threads=36 / lookahead_threads=6 / sliced_threads=0 / nr=0 / decimate=1 / interlaced=0 / bluray_compat=0 / constrained_intra=0 / bframes=6 / b_pyramid=2 / b_adapt=1 / b_bias=0 / direct=1 / weightb=1 / open_gop=0 / weightp=2 / keyint=200 / keyint_min=20 / scenecut=0 / intra_refresh=0 / rc_lookahead=40 / rc=2pass / mbtree=1 / bitrate=5120 / ratetol=1.0 / qcomp=0.60 / qpmin=0 / qpmax=69 / qpstep=4 / cplxblur=20.0 / qblur=0.5 / vbv_maxrate=7680 / vbv_bufsize=20480 / nal_hrd=none / filler=0 / ip_ratio=1.40 / aq=1:1.00
Язык : English
Default : Да
Forced : Нет

Аудио #1
Идентификатор : 2
Формат : AC-3
Формат/Информация : Audio Coding 3
Расширение режима : CM (complete main)
Параметр Endianness формата : Big
Идентификатор кодека : A_AC3
Продолжительность : 2 ч. 30 м.
Вид битрейта : Постоянный
Битрейт : 640 Кбит/сек
Каналы : 6 каналов
Расположение каналов : Front: L C R, Side: L R, LFE
Частота : 48,0 КГц
Битовая глубина : 16 бит
Метод сжатия : С потерями
Размер потока : 690 Мбайт (5%)
Заголовок : Дубляж
Язык : Russian
Default : Да
Forced : Нет

Аудио #2
Идентификатор : 3
Формат : AC-3
Формат/Информация : Audio Coding 3
Расширение режима : CM (complete main)
Параметр Endianness формата : Big
Идентификатор кодека : A_AC3
Продолжительность : 2 ч. 30 м.
Вид битрейта : Постоянный
Битрейт : 448 Кбит/сек
Каналы : 6 каналов
Расположение каналов : Front: L C R, Side: L R, LFE
Частота : 48,0 КГц
Битовая глубина : 16 бит
Метод сжатия : С потерями
Размер потока : 483 Мбайт (4%)
Заголовок : Tycoon-studio
Язык : Russian
Default : Нет
Forced : Нет

Аудио #3
Идентификатор : 4
Формат : DTS
Формат/Информация : Digital Theater Systems
Режим : 16
Параметр Endianness формата : Big
Идентификатор кодека : A_DTS
Продолжительность : 2 ч. 30 м.
Вид битрейта : Постоянный
Битрейт : 1509 Кбит/сек
Каналы : 6 каналов
Расположение каналов : Front: L C R, Side: L R, LFE
Частота : 48,0 КГц
Битовая глубина : 24 бит
Метод сжатия : С потерями
Размер потока : 1,59 Гбайт (12%)
Заголовок : П.Гланц и И.Королёва
Язык : Russian
Default : Нет
Forced : Нет

Аудио #4
Идентификатор : 5
Формат : DTS
Формат/Информация : Digital Theater Systems
Режим : 16
Параметр Endianness формата : Big
Идентификатор кодека : A_DTS
Продолжительность : 2 ч. 30 м.
Вид битрейта : Постоянный
Битрейт : 1509 Кбит/сек
Каналы : 6 каналов
Расположение каналов : Front: L C R, Side: L R, LFE
Частота : 48,0 КГц
Битовая глубина : 24 бит
Метод сжатия : С потерями
Размер потока : 1,59 Гбайт (12%)
Заголовок : А.Гаврилов
Язык : Russian
Default : Нет
Forced : Нет

Аудио #5
Идентификатор : 6
Формат : DTS
Формат/Информация : Digital Theater Systems
Режим : 16
Параметр Endianness формата : Big
Идентификатор кодека : A_DTS
Продолжительность : 2 ч. 30 м.
Вид битрейта : Постоянный
Битрейт : 1509 Кбит/сек
Каналы : 6 каналов
Расположение каналов : Front: L C R, Side: L R, LFE
Частота : 48,0 КГц
Битовая глубина : 24 бит
Метод сжатия : С потерями
Размер потока : 1,59 Гбайт (12%)
Заголовок : В.Королёв
Язык : Russian
Default : Нет
Forced : Нет

Аудио #6
Идентификатор : 7
Формат : AC-3
Формат/Информация : Audio Coding 3
Расширение режима : CM (complete main)
Параметр Endianness формата : Big
Идентификатор кодека : A_AC3
Продолжительность : 2 ч. 30 м.
Вид битрейта : Постоянный
Битрейт : 640 Кбит/сек
Каналы : 6 каналов
Расположение каналов : Front: L C R, Side: L R, LFE
Частота : 48,0 КГц
Битовая глубина : 16 бит
Метод сжатия : С потерями
Размер потока : 690 Мбайт (5%)
Язык : Ukrainian
Default : Нет
Forced : Нет

Аудио #7
Идентификатор : 8
Формат : DTS
Формат/Информация : Digital Theater Systems
Режим : 16
Параметр Endianness формата : Big
Идентификатор кодека : A_DTS
Продолжительность : 2 ч. 30 м.
Вид битрейта : Постоянный
Битрейт : 1509 Кбит/сек
Каналы : 6 каналов
Расположение каналов : Front: L C R, Side: L R, LFE
Частота : 48,0 КГц
Битовая глубина : 24 бит
Метод сжатия : С потерями
Размер потока : 1,59 Гбайт (12%)
Язык : English
Default : Нет
Forced : Нет

Текст #1
Идентификатор : 9
Формат : UTF-8
Идентификатор кодека : S_TEXT/UTF8
Идентификатор кодека/Информация : UTF-8 Plain Text
Язык : Russian
Default : Да
Forced : Нет

Текст #2
Идентификатор : 10
Формат : UTF-8
Идентификатор кодека : S_TEXT/UTF8
Идентификатор кодека/Информация : UTF-8 Plain Text
Язык : Russian
Default : Нет
Forced : Нет

Текст #3
Идентификатор : 11
Формат : UTF-8
Идентификатор кодека : S_TEXT/UTF8
Идентификатор кодека/Информация : UTF-8 Plain Text
Язык : Ukrainian
Default : Нет
Forced : Нет

Текст #4
Идентификатор : 12
Формат : UTF-8
Идентификатор кодека : S_TEXT/UTF8
Идентификатор кодека/Информация : UTF-8 Plain Text
Язык : Ukrainian
Default : Нет
Forced : Нет

Текст #5
Идентификатор : 13
Формат : UTF-8
Идентификатор кодека : S_TEXT/UTF8
Идентификатор кодека/Информация : UTF-8 Plain Text
Язык : English
Default : Нет
Forced : Нет




Скачать Пираты.Карибского.моря.Сундук.мертвеца.Pirates.of.the.Caribbean.Dead.Man's.Chest.(Гор.Вербински).[2006.фэнтези.боевик.приключения.WEBRip].[1080p].[Open.Matte].[Dub]x2+[DVO]x2+[AVO]x2+[Eng]+[Sub]x3.torrent без регистрации
Золото ЗОЛОТАЯ РАЗДАЧА! СКАЧАННОЕ НЕ ЗАСЧИТЫВАЕТСЯ! Золото
Дата: Зарегистрирован   [ Тип: внутренний ] Как тут cкачать?
MAGNET ссылка
MAGNET ссылка


Скачать .torrent

68 KB

Статус: проверено DHT
Скачан: торрент - 2 раз, раздача полностью - 0 раз
Размер: 13,34 GB
Оценка:  - (Голосов: 0)
Поблагодарили: 0
Поделиться ссылкой на эту раздачу с друзьями:
В контактеFacebookОдноклассникиTwitterLivejournalМой МирLiveinternet
 

 
Показать сообщения:    


Вы не можете начинать темы
Вы не можете отвечать на сообщения
Вы не можете редактировать свои сообщения
Вы не можете удалять свои сообщения
Вы не можете голосовать в опросах
Вы не можете прикреплять файлы к сообщениям
Вы можете скачивать файлы