Loading...
Error

Скачать Имитатор / Copycat (Джон Эмиел) [1995, триллер, драма, детектив, BDRip] [720p] [MVO]x4+[DVO]+[AVO]x3+[Eng]+[Sub Rus, Eng]x2 торрент без регистрации

Статистика раздачи
Размер:  8,97 GB   |    Скачан:  5 раз
Сидов:  1  [  0 KB/s  ]  
 
 
 
Автор Сообщение

Marsianka

[] 

Имитатор

Copycat

«One man is copying the most notorious killers in history one at a time. Together, two women must stop him from killing again. Or they're next»


Страна: США
Жанр: триллер, драма, детектив
Год выпуска: 1995
Продолжительность: 02:03:05
Перевод: 4 x Профессиональный (многоголосый, закадровый), Профессиональный (двухголосый, закадровый), 3 x Авторский
Субтитры: русские, английские.

Режиссер: Джон Эмиел / Jon Amiel

В ролях: Сигурни Уивер (Helen Hudson), Холли Хантер (M.J. Monahan), Дермот Малруни (Reuben Goetz), Уильям МакНамара (Peter Foley), Гарри Конник мл. (Daryll Lee Cullum), Дж.Э. Фримен (Lt. Quinn), Уилл Пэттон (Nicoletti), Джон Ротмен (Andy), Шэннон О’Хёрли (Susan Schiffer), Боб Грин (Pachulski), Тони Хейни (Kerby), Дэнни Ковач (Kostas)

Описание: Сан-Франциско потрясен серией жестоких убийств, каждое из которых копирует аналогичные преступления, совершенные в прошлом разными маньяками. Чтобы остановить волну убийств, сотрудница полиции Эм Джей Монахан обращается за помощью к доктору Хелен Хадсон, специалисту по психологии маньяков.


MPAA: R - Лицам до 17 лет обязательно присутствие взрослого

Семпл



Качество: BDRip 720p
Контейнер: MKV

Видео: AVC, 1280x534 (2.40:1), 7165 kbps, 23,976 fps, 0,437 bpp
Аудио №1: русский / AC3 / 5.1 / 48 kHz / 640 kbps / MVO ( Гемини-Фильм )
Аудио №2: русский / AC3 / 2.0 / 48 kHz / 192 kbps / MVO ( Первый канал )
Аудио №3: русский / AC3 / 2.0 / 48 kHz / 192 kbps / MVO ( OPT )
Аудио №4: русский / AC3 / 2.0 / 48 kHz / 192 kbps / MVO ( PTP )
Аудио №5: русский / AC3 / 2.0 / 48 kHz / 192 kbps / DVO ( REN TV )
Аудио №6: русский / AC3 / 5.1 / 48 kHz / 640 kbps / AVO ( Живов )
Аудио №7: русский / AC3 / 2.0 / 48 kHz / 192 kbps / AVO ( Гаврилов )
Аудио №8: русский / AC3 / 2.0 / 48 kHz / 192 kbps / AVO ( Горчаков )
Аудио №9: английский / AC3 / 5.1 / 48 kHz / 640 kbps
Навигация по главам: есть


Формат : Matroska
Версия формата : Version 2
Размер файла : 8,97 Гбайт
Продолжительность : 2 ч. 3 м.
Общий поток : 10,4 Мбит/сек
Название фильма : = Имитатор / Copycat (1995) BDRip 720p - KORSAR =
Дата кодирования : UTC 2017-12-04 16:17:36
Программа кодирования : mkvmerge v5.8.0 ('No Sleep / Pillow') built on Sep 2 2012 15:37:04
Библиотека кодирования : libebml v1.2.3 + libmatroska v1.3.0
Attachment : Yes

Видео
Идентификатор : 1
Формат : AVC
Формат/Информация : Advanced Video Codec
Профиль формата : High@L4.1
Параметр CABAC формата : Да
Параметр ReFrames формата : 12 кадров
Идентификатор кодека : V_MPEG4/ISO/AVC
Продолжительность : 2 ч. 3 м.
Битрейт : 7153 Кбит/сек
Ширина : 1280 пикселей
Высота : 534 пикселя
Соотношение сторон : 2,40:1
Режим частоты кадров : Постоянный
Частота кадров : 23,976 кадра/сек
Цветовое пространство : YUV
Субдискретизация насыщенности : 4:2:0
Битовая глубина : 8 бит
Тип развёртки : Прогрессивная
Бит/(Пиксели*Кадры) : 0.436
Размер потока : 6,15 Гбайт (69%)
Заголовок : Имитатор / Copycat (1995) BDRip 720p - KORSAR
Библиотека кодирования : x264 core 148 r2744kMod b97ae06
Настройки программы : cabac=1 / ref=12 / deblock=1:-2:-2 / analyse=0x3:0x113 / me=umh / subme=11 / psy=1 / fade_compensate=0.00 / psy_rd=1.05:0.20 / mixed_ref=1 / me_range=32 / chroma_me=1 / trellis=2 / 8x8dct=1 / cqm=0 / deadzone=21,11 / fast_pskip=0 / chroma_qp_offset=-3 / threads=12 / lookahead_threads=3 / sliced_threads=0 / nr=0 / decimate=1 / interlaced=0 / bluray_compat=0 / constrained_intra=0 / bframes=10 / b_pyramid=2 / b_adapt=2 / b_bias=0 / direct=1 / weightb=1 / open_gop=0 / weightp=2 / keyint=240 / keyint_min=23 / scenecut=40 / intra_refresh=0 / rc_lookahead=60 / rc=crf / mbtree=0 / crf=18.0000 / qcomp=0.60 / qpmin=0 / qpmax=69 / qpstep=4 / vbv_maxrate=50000 / vbv_bufsize=62500 / crf_max=0.0 / nal_hrd=none / filler=0 / ip_ratio=1.40 / pb_ratio=1.30 / aq=3:0.80
Язык : English
Default : Да
Forced : Нет
Основные цвета : BT.709
Характеристики трансфера : BT.709
Коэффициенты матрицы : BT.709

Аудио #1
Идентификатор : 2
Формат : AC-3
Формат/Информация : Audio Coding 3
Расширение режима : CM (complete main)
Параметр Endianness формата : Big
Идентификатор кодека : A_AC3
Продолжительность : 2 ч. 3 м.
Вид битрейта : Постоянный
Битрейт : 640 Кбит/сек
Каналы : 6 каналов
Расположение каналов : Front: L C R, Side: L R, LFE
Частота : 48,0 КГц
Битовая глубина : 16 бит
Метод сжатия : С потерями
Размер потока : 563 Мбайт (6%)
Заголовок : MVO ( Гемини-Фильм )
Язык : Russian
Default : Да
Forced : Нет

Аудио #2
Идентификатор : 3
Формат : AC-3
Формат/Информация : Audio Coding 3
Расширение режима : CM (complete main)
Параметр Endianness формата : Big
Идентификатор кодека : A_AC3
Продолжительность : 2 ч. 3 м.
Вид битрейта : Постоянный
Битрейт : 192 Кбит/сек
Каналы : 2 канала
Расположение каналов : Front: L R
Частота : 48,0 КГц
Битовая глубина : 16 бит
Метод сжатия : С потерями
Размер потока : 169 Мбайт (2%)
Заголовок : MVO ( Первый канал )
Язык : Russian
Default : Нет
Forced : Нет

Аудио #3
Идентификатор : 4
Формат : AC-3
Формат/Информация : Audio Coding 3
Расширение режима : CM (complete main)
Параметр Endianness формата : Big
Идентификатор кодека : A_AC3
Продолжительность : 2 ч. 3 м.
Вид битрейта : Постоянный
Битрейт : 192 Кбит/сек
Каналы : 2 канала
Расположение каналов : Front: L R
Частота : 48,0 КГц
Битовая глубина : 16 бит
Метод сжатия : С потерями
Размер потока : 169 Мбайт (2%)
Заголовок : MVO ( OPT )
Язык : Russian
Default : Нет
Forced : Нет

Аудио #4
Идентификатор : 5
Формат : AC-3
Формат/Информация : Audio Coding 3
Расширение режима : CM (complete main)
Параметр Endianness формата : Big
Идентификатор кодека : A_AC3
Продолжительность : 2 ч. 3 м.
Вид битрейта : Постоянный
Битрейт : 192 Кбит/сек
Каналы : 2 канала
Расположение каналов : Front: L R
Частота : 48,0 КГц
Битовая глубина : 16 бит
Метод сжатия : С потерями
Размер потока : 169 Мбайт (2%)
Заголовок : MVO ( PTP )
Язык : Russian
Default : Нет
Forced : Нет

Аудио #5
Идентификатор : 6
Формат : AC-3
Формат/Информация : Audio Coding 3
Расширение режима : CM (complete main)
Параметр Endianness формата : Big
Идентификатор кодека : A_AC3
Продолжительность : 2 ч. 3 м.
Вид битрейта : Постоянный
Битрейт : 192 Кбит/сек
Каналы : 2 канала
Расположение каналов : Front: L R
Частота : 48,0 КГц
Битовая глубина : 16 бит
Метод сжатия : С потерями
Размер потока : 169 Мбайт (2%)
Заголовок : DVO ( REN TV )
Язык : Russian
Default : Нет
Forced : Нет

Аудио #6
Идентификатор : 7
Формат : AC-3
Формат/Информация : Audio Coding 3
Расширение режима : CM (complete main)
Параметр Endianness формата : Big
Идентификатор кодека : A_AC3
Продолжительность : 2 ч. 3 м.
Вид битрейта : Постоянный
Битрейт : 640 Кбит/сек
Каналы : 6 каналов
Расположение каналов : Front: L C R, Side: L R, LFE
Частота : 48,0 КГц
Битовая глубина : 16 бит
Метод сжатия : С потерями
Размер потока : 563 Мбайт (6%)
Заголовок : AVO ( Живов )
Язык : Russian
Default : Нет
Forced : Нет

Аудио #7
Идентификатор : 8
Формат : AC-3
Формат/Информация : Audio Coding 3
Расширение режима : CM (complete main)
Параметр Endianness формата : Big
Идентификатор кодека : A_AC3
Продолжительность : 2 ч. 3 м.
Вид битрейта : Постоянный
Битрейт : 192 Кбит/сек
Каналы : 2 канала
Расположение каналов : Front: L R
Частота : 48,0 КГц
Битовая глубина : 16 бит
Метод сжатия : С потерями
Размер потока : 169 Мбайт (2%)
Заголовок : AVO ( Гаврилов )
Язык : Russian
Default : Нет
Forced : Нет

Аудио #8
Идентификатор : 9
Формат : AC-3
Формат/Информация : Audio Coding 3
Расширение режима : CM (complete main)
Параметр Endianness формата : Big
Идентификатор кодека : A_AC3
Продолжительность : 2 ч. 3 м.
Вид битрейта : Постоянный
Битрейт : 192 Кбит/сек
Каналы : 2 канала
Расположение каналов : Front: L R
Частота : 48,0 КГц
Битовая глубина : 16 бит
Метод сжатия : С потерями
Размер потока : 169 Мбайт (2%)
Заголовок : AVO ( Горчаков )
Язык : Russian
Default : Нет
Forced : Нет

Аудио #9
Идентификатор : 10
Формат : AC-3
Формат/Информация : Audio Coding 3
Расширение режима : CM (complete main)
Параметр Endianness формата : Big
Идентификатор кодека : A_AC3
Продолжительность : 2 ч. 3 м.
Вид битрейта : Постоянный
Битрейт : 640 Кбит/сек
Каналы : 6 каналов
Расположение каналов : Front: L C R, Side: L R, LFE
Частота : 48,0 КГц
Битовая глубина : 16 бит
Метод сжатия : С потерями
Размер потока : 563 Мбайт (6%)
Язык : English
Default : Нет
Forced : Нет

Текст #1
Идентификатор : 11
Формат : UTF-8
Идентификатор кодека : S_TEXT/UTF8
Идентификатор кодека/Информация : UTF-8 Plain Text
Язык : Russian
Default : Нет
Forced : Нет

Текст #2
Идентификатор : 12
Формат : UTF-8
Идентификатор кодека : S_TEXT/UTF8
Идентификатор кодека/Информация : UTF-8 Plain Text
Язык : English
Default : Нет
Forced : Нет

Текст #3
Идентификатор : 13
Формат : UTF-8
Идентификатор кодека : S_TEXT/UTF8
Идентификатор кодека/Информация : UTF-8 Plain Text
Заголовок : SDH
Язык : English
Default : Нет
Forced : Нет

Меню
00:00:00.000 : en:Identifying Killer
00:03:51.397 : en:Rest Room Menace
00:07:12.098 : en:13 Months Later
00:10:25.499 : en:Take Down Suspects
00:12:41.844 : en:VIctim In Making
00:13:53.249 : en:One Pushy Broad
00:19:19.950 : en:Just Beyond Reach
00:20:50.249 : en:Crack Caller
00:25:26.691 : en:Unwanted Visitors
00:31:40.106 : en:His Calling Card
00:33:41.477 : en:Wardrobe Change
00:36:21.262 : en:After Hours
00:38:16.252 : en:About Power
00:42:17.493 : en:Victim Preview
00:47:07.825 : en:Wrong Category
00:48:41.084 : en:Peter's Basements
00:51:32.839 : en:Hillside Corpse
00:53:50.894 : en:Getting Started
00:58:07.066 : en:Doing Son Of Sam
01:00:21.868 : en:Stalked
01:06:42.248 : en:Frightful Truth
01:09:16.402 : en:Crystal Clear
01:11:31.662 : en:The Profile
01:14:42.769 : en:Bedroom Invasion
01:16:41.555 : en:Death And Life
01:21:54.951 : en:In The Line Of Duty
01:25:31.793 : en:The Wrong Result
01:28:22.547 : en:Close To Home
01:32:50.606 : en:Positive I.D.
01:36:12.141 : en:Fiery Dead End
01:38:13.596 : en:Accept Invitation
01:39:26.210 : en:Day Late/S Short
01:42:36.316 : en:Everything Just So
01:47:33.155 : en:M.J. On The Scene
01:49:34.150 : en:Deadly Strike
01:51:02.656 : en:Fighting Back
01:52:25.822 : en:Out In The Open
01:53:35.391 : en:Hitting The Mark
01:55:30.214 : en:Glory





Скачать Имитатор.Copycat.(Джон.Эмиел).[1995.триллер.драма.детектив.BDRip].[720p].[MVO]x4+[DVO]+[AVO]x3+[Eng]+[Sub.Rus.Eng]x2.torrent без регистрации
Золото ЗОЛОТАЯ РАЗДАЧА! СКАЧАННОЕ НЕ ЗАСЧИТЫВАЕТСЯ! Золото
Дата: Зарегистрирован   [ Тип: внутренний ] Как тут cкачать?
MAGNET ссылка
MAGNET ссылка


Скачать .torrent

46 KB

Статус: проверено DHT
Скачан: торрент - 5 раз, раздача полностью - 1 раз
Размер: 8,97 GB
Оценка:  - (Голосов: 0)
Поблагодарили: 0
Поделиться ссылкой на эту раздачу с друзьями:
В контактеFacebookОдноклассникиTwitterLivejournalМой МирLiveinternet
 

 
Показать сообщения:    


Вы не можете начинать темы
Вы не можете отвечать на сообщения
Вы не можете редактировать свои сообщения
Вы не можете удалять свои сообщения
Вы не можете голосовать в опросах
Вы не можете прикреплять файлы к сообщениям
Вы можете скачивать файлы