Loading...
Error

Скачать Калифорнийский дорожный патруль / CHIPS (Дэкс Шепард) [2017, Боевик, комедия, криминал, BDRip][1080p] [DUB Rus Ukr iTunes+Mvo Rus] [R.G. GoldenShara] торрент без регистрации

Статистика раздачи
Размер:  4,59 GB   |    Скачан:  69 раз
Сидов:  4  [  150 KB/s  ]   Личеров:  1  [  169 KB/s  ]  
 
 
 
Автор Сообщение

Magnetto83

[] 


Калифорнийский дорожный патруль / CHIPS


Год выпуска: 2017
Выпущено: США | Primate Pictures, Warner Bros. Pictures
Жанр: Боевик, комедия, криминал
Продолжительность: 01:40:52
Перевод 1: Профессиональный (полное дублирование) | iTunes Rus |
Перевод 2: Профессиональный (многоголосый) | Paradox" & Omskbird records |
Перевод 3: Профессиональный (полное дублирование) | Гуртом Line Ukr|
Субтитры: Русские (Форсированные), английские (full, SDH, SDH Colored)
Навигация по главам: Сохранены оригинальные главы как на Blu-ray

Слоган: «Chip Happens»

Режиссер: Дэкс Шепард

В ролях: Майкл Пенья, Дэкс Шепард, Джессика МакНэми, Адам Броди, Райан Хансен, Кристен Белл, Джэми Бок, Джастин Чатвин, Камерон Крус, Клэй Каллен

Описание: Полицейские Джон Бейкер и Фрэнк Пончерелло вместе патрулируют улицы города на мотоциклах. Получив по рации сигнал от диспетчера, они отправляются на место происшествия, чтобы спасти жителей города от очередного преступника или опасного нарушителя. Казалось бы, их работа давно стала рутиной и потеряла все прелести, но абсолютная противоположность характеров напарников и их разные предпочтения во всем нередко ставят главных героев в нелепые и даже комичные ситуации. Кроме того, регулярно подшучивая друг на другом, друзья не забывают и о взаимовыручке.



Возраст: 18+ (зрителям, достигшим 16 лет. запрещено для детей)
Рейтинг MPAA: R (лицам до 17 лет обязательно присутствие взрослого)

Качество: BDRip 1080p
Формат: MKV
Видео кодек: H.264
Аудио кодек: AC3
Видео: 1920x1080 (16:9), 5748 kbps, 23.976 fps
Аудио 1: Русский Dolby Digital 5.1 (48000Гц/384Кбит/с)
Аудио 2: Русский Dolby Digital 2.0 (48000Гц/192Кбит/с)
Аудио 3: Украинский Dolby Digital 2.0 (48000Гц/192Кбит/с)


x264 [info]: frame I:1338 Avg QP:18.66 size:198004
x264 [info]: frame P:36127 Avg QP:22.24 size: 57941
x264 [info]: frame B:107637 Avg QP:24.63 size: 18415
x264 [info]: consecutive B-frames: 3.5% 5.5% 12.9% 21.6% 21.0% 28.9% 4.7% 0.8% 1.1%
x264 [total]: encoded 145102 frames, 1.28 fps, 5737.43 kb/s



General
Complete name : G:\Видео\Мои Рипы 1080p\Кино-Хиты 2017\Калифорнийский дорожный патруль (CHIPS) 2017 Dub Rus Ukr iTunes+Mvo Rus BDRip 1080p.mkv
Format : Matroska
Format version : Version 4 / Version 2
File size : 4.59 GiB
Duration : 1h 40mn
Overall bit rate : 6 509 Kbps
Movie name : Калифорнийский дорожный патруль (CHIPS) 2017 Dub Rus BDRip 1080p By R.G. GoldenShara
Encoded date : UTC 2017-12-05 12:09:21
Writing application : mkvmerge v7.8.0 ('River Man') 32bit built on Mar 27 2015 16:18:02
Writing library : libebml v1.3.1 + libmatroska v1.4.2
Attachements : Cover.jpg
DURATION : 01:40:50.912000000
NUMBER_OF_FRAMES : 189091
NUMBER_OF_BYTES : 290443776
_STATISTICS_WRITING_APP : mkvmerge v7.8.0 ('River Man') 32bit built on Mar 27 2015 16:18:02
_STATISTICS_WRITING_DATE_UTC : 2017-12-05 12:09:21
_STATISTICS_TAGS : BPS DURATION NUMBER_OF_FRAMES NUMBER_OF_BYTES

Video
ID : 1
Format : AVC
Format/Info : Advanced Video Codec
Format profile : High@L4.1
Format settings, CABAC : Yes
Format settings, ReFrames : 4 frames
Codec ID : V_MPEG4/ISO/AVC
Duration : 1h 40mn
Bit rate : 5 748 Kbps
Width : 1 920 pixels
Height : 1 080 pixels
Display aspect ratio : 16:9
Frame rate mode : Constant
Frame rate : 23.976 fps
Color space : YUV
Chroma subsampling : 4:2:0
Bit depth : 8 bits
Scan type : Progressive
Bits/(Pixel*Frame) : 0.116
Stream size : 3.95 GiB (86%)
Title : Калифорнийский дорожный патруль (CHIPS) 2017 BDRip 1080p By Magnetto 83
Writing library : x264 core 146 r2538 121396c
Encoding settings : cabac=1 / ref=4 / deblock=1:-1:-1 / analyse=0x3:0x113 / me=umh / subme=10 / psy=1 / psy_rd=1.00:0.00 / mixed_ref=1 / me_range=32 / chroma_me=1 / trellis=2 / 8x8dct=1 / cqm=0 / deadzone=21,11 / fast_pskip=0 / chroma_qp_offset=-2 / threads=3 / lookahead_threads=1 / sliced_threads=0 / nr=0 / decimate=1 / interlaced=0 / bluray_compat=0 / constrained_intra=0 / bframes=8 / b_pyramid=2 / b_adapt=2 / b_bias=0 / direct=3 / weightb=1 / open_gop=0 / weightp=2 / keyint=250 / keyint_min=23 / scenecut=40 / intra_refresh=0 / rc=2pass / mbtree=0 / bitrate=5748 / ratetol=1.0 / qcomp=0.60 / qpmin=0 / qpmax=69 / qpstep=4 / cplxblur=20.0 / qblur=0.5 / ip_ratio=1.40 / pb_ratio=1.30 / aq=2:1.00
Language : English
Default : Yes
Forced : No

Audio #1
ID : 2
Format : AC-3
Format/Info : Audio Coding 3
Mode extension : CM (complete main)
Format settings, Endianness : Big
Codec ID : A_AC3
Duration : 1h 40mn
Bit rate mode : Constant
Bit rate : 384 Kbps
Channel(s) : 6 channels
Channel positions : Front: L C R, Side: L R, LFE
Sampling rate : 48.0 KHz
Compression mode : Lossy
Stream size : 277 MiB (6%)
Title : DD 5.1 @ 384 Kbps - Dub | iTunes |
Language : Russian
Default : Yes
Forced : No

Audio #2
ID : 3
Format : AC-3
Format/Info : Audio Coding 3
Mode extension : CM (complete main)
Format settings, Endianness : Big
Codec ID : A_AC3
Duration : 1h 40mn
Bit rate mode : Constant
Bit rate : 192 Kbps
Channel(s) : 2 channels
Channel positions : Front: L R
Sampling rate : 48.0 KHz
Compression mode : Lossy
Stream size : 139 MiB (3%)
Title : 2.0 @ 192 Kbps - MVO ("Paradox" & Omskbird records)
Language : Russian
Default : No
Forced : No

Audio #3
ID : 4
Format : AC-3
Format/Info : Audio Coding 3
Mode extension : CM (complete main)
Format settings, Endianness : Big
Codec ID : A_AC3
Duration : 1h 40mn
Bit rate mode : Constant
Bit rate : 192 Kbps
Channel(s) : 2 channels
Channel positions : Front: L R
Sampling rate : 48.0 KHz
Compression mode : Lossy
Stream size : 139 MiB (3%)
Title : 2.0 @ 192 Kbps - Dub [Postmodern, Line] AC3 2.0 192 Kbps [Hurtom-Covenant]
Language : Ukrainian
Default : No
Forced : No

Text #1
ID : 5
Format : UTF-8
Codec ID : S_TEXT/UTF8
Codec ID/Info : UTF-8 Plain Text
Language : Russian
Default : Yes
Forced : No

Text #2
ID : 6
Format : UTF-8
Codec ID : S_TEXT/UTF8
Codec ID/Info : UTF-8 Plain Text
Title : Eng Full
Language : English
Default : No
Forced : No

Text #3
ID : 7
Format : UTF-8
Codec ID : S_TEXT/UTF8
Codec ID/Info : UTF-8 Plain Text
Title : Eng SDH
Language : English
Default : No
Forced : No

Text #4
ID : 8
Format : UTF-8
Codec ID : S_TEXT/UTF8
Codec ID/Info : UTF-8 Plain Text
Title : Eng SDH-Colored
Language : English
Default : No
Forced : No

Menu
00:00:00.000 : :Chapter 01
00:10:48.356 : :Chapter 02
00:19:28.959 : :Chapter 03
00:29:58.004 : :Chapter 04
00:39:53.599 : :Chapter 05
00:50:45.667 : :Chapter 06
01:02:38.421 : :Chapter 07
01:13:40.249 : :Chapter 08
01:25:41.386 : :Chapter 09
01:37:41.939 : :Chapter 10
01:40:51.712 : :Chapter 11








Скачать Калифорнийский.дорожный.патруль.CHIPS.(Дэкс.Шепард).[2017.Боевик.комедия.криминал.BDRip][1080p].[DUB.Rus.Ukr.iTunes+Mvo.Rus].[R.G.GoldenShara].torrent без регистрации
Золото ЗОЛОТАЯ РАЗДАЧА! СКАЧАННОЕ НЕ ЗАСЧИТЫВАЕТСЯ! Золото
Дата: Зарегистрирован   [ Тип: внутренний ] Как тут cкачать?
MAGNET ссылка
MAGNET ссылка


Скачать .torrent

12 KB

Статус: Τ временная раздача
Скачан: торрент - 69 раз, раздача полностью - 58 раз
Размер: 4,59 GB
Оценка:  5 (Голосов: 4)
Поблагодарили: 6
Поделиться ссылкой на эту раздачу с друзьями:
В контактеFacebookОдноклассникиTwitterLivejournalМой МирLiveinternet
 

 

копылов геннадий николаев

[] 

Спасибо большое !Ждал именно от вас! ay
 

Magnetto83

[] 

ab Пожалуйста! az Спасибо за отзыв! ad
 
Показать сообщения:    


Вы не можете начинать темы
Вы не можете отвечать на сообщения
Вы не можете редактировать свои сообщения
Вы не можете удалять свои сообщения
Вы не можете голосовать в опросах
Вы не можете прикреплять файлы к сообщениям
Вы можете скачивать файлы