Loading...
Error

Скачать Исполнитель желаний / Wishmaster (Роберт Куртцман) [1997, ужасы, фэнтези, BDRip] [720p] [MVO]+[AVO]x4+[VO]+[Оригинал Eng]+[Sub Rus, Eng]x2 торрент без регистрации

Статистика раздачи
Размер:  5,1 GB   |    Скачан:  4 раза
Сидов:  1  [  0 KB/s  ]  
 
 
 
Автор Сообщение

Marsianka

[] 


Информация о фильме
Название: Исполнитель желаний / Властелин желаний / Хозяин желаний
Оригинальное название: Wishmaster
Год выхода: 1997
Жанр: ужасы, фэнтези
Режиссер: Роберт Куртцман

В ролях:
Тэмми Лорен — Александра Эмберсон, Эндрю Дивофф — Джинн, Крис Леммон — Ник Мерритт, энди Бенсон — Шэннон Эмберсон, Тони Крейн — Джош Эйкман, Дженни О’Хара — профессор Уэнди Дерлет, Кейн Ходдер — охранник Мерритта, Тони Тодд — Джонни Валентайн, Роберт Инглунд — Реймонд Бомонт, Рикко Росс — лейтенант Натансон, Джон Байнер — Дуг Клегг, Бак Флауэр — бездомный, Реджи Бэннистер — фармацевт из аптеки, Гретхен Палмер — Ариэлла, Тед Рейми — Эд Финней, Джозеф Пилато — Микки Торелли, Ангус Скримм — голос за кадром.

О фильме:
Вечность прошла с тех пор, как Бог создал Небо и Землю. Тогда же, еще до появления людей, были созданы джинны - могущественные демоны, наделенные даром исполнять людские желания, стремящиеся уничтожить людей и завладеть миром, данным человеку Господом. Для этого им необходимо было исполнить три желания пробудившего кого-либо из них человека. В наше время из Азии в Америку привозят древнейшую статую, в которой находится таинственный камень, в котором на протяжении веков был заключен один из таких джиннов. При разгрузки корабля статуя разбилась по вине пьяного крановщика, камень выпал. Его подобрал один из рабочих и продал в антикварный магазин. В конце концов он попадает к симпатичной девушке, и начинается цепь кошмарных событий....



Страна: США
Студия: Image Organization, Pierre David
Продолжительность: 01:30:07
Перевод: Профессиональный многоголосый, Авторский одноголосый, Любительский одноголосый, Оригинал

Файл
Кодек: x264
Качество: BDRip 720p
Видео: 1280x720 (16:9), 23.976 fps, 5953 kbps

Аудио #1: AC3, 448 Kbps, 48.0 KHz, 6 ch (Rus) Профессиональный многоголосый, DVD Group
Аудио #2: AC3, 384 Kbps, 48.0 KHz, 6 ch (Rus) Авторский одноголосый, П.Карцев
Аудио #3: AC3, 384 Kbps, 48.0 KHz, 6 ch (Rus) Авторский одноголосый, Ю.Сербин
Аудио #4: AC3, 192 Kbps, 48.0 KHz, 2 ch (Rus) Авторский одноголосый, Ю.Живов
Аудио #5: AC3, 192 Kbps, 48.0 KHz, 2 ch (Rus) Авторский одноголосый, С.Визгунов (Модулированный)
Аудио #6: AC3, 192 Kbps, 48.0 KHz, 2 ch (Rus) Любительский одноголосый
Аудио #7: AC3, 192 Kbps, 48.0 KHz, 2 ch (Eng) Оригинал
Субтитры: Русские, Английские
Format : Matroska
Format version : Version 2
File size : 5.10 GiB
Duration : 1 h 30 min
Overall bit rate : 8 099 kb/s
Encoded date : UTC 2017-12-06 00:23:56
Writing application : mkvmerge v5.4.0 ('Piper') built on Mar 10 2012 13:34:39
Writing library : libebml v1.2.3 + libmatroska v1.3.0

Video
ID : 1
Format : AVC
Format/Info : Advanced Video Codec
Format profile : High@L4.1
Format settings : CABAC / 9 Ref Frames
Format settings, CABAC : Yes
Format settings, RefFrames : 9 frames
Muxing mode : Header stripping
Codec ID : V_MPEG4/ISO/AVC
Duration : 1 h 30 min
Bit rate : 5 953 kb/s
Width : 1 280 pixels
Height : 720 pixels
Display aspect ratio : 16:9
Frame rate mode : Constant
Frame rate : 23.976 (24000/1001) FPS
Color space : YUV
Chroma subsampling : 4:2:0
Bit depth : 8 bits
Scan type : Progressive
Bits/(Pixel*Frame) : 0.269
Stream size : 3.75 GiB (74%)
Title : Wishmaster / Исполнитель желаний / Властелин желаний / Хозяин желаний (1997)
Writing library : x264 core 146 r2538 121396c
Encoding settings : cabac=1 / ref=9 / deblock=1:-3:-2 / analyse=0x3:0x113 / me=umh / subme=11 / psy=1 / psy_rd=1.00:0.15 / mixed_ref=1 / me_range=32 / chroma_me=1 / trellis=2 / 8x8dct=1 / cqm=0 / deadzone=21,11 / fast_pskip=0 / chroma_qp_offset=-3 / threads=6 / lookahead_threads=1 / sliced_threads=0 / nr=0 / decimate=1 / interlaced=0 / bluray_compat=0 / constrained_intra=0 / bframes=8 / b_pyramid=2 / b_adapt=2 / b_bias=0 / direct=1 / weightb=1 / open_gop=0 / weightp=2 / keyint=230 / keyint_min=23 / scenecut=40 / intra_refresh=0 / rc_lookahead=40 / rc=crf / mbtree=0 / crf=19.0 / qcomp=0.60 / qpmin=0 / qpmax=69 / qpstep=4 / vbv_maxrate=62500 / vbv_bufsize=78125 / crf_max=0.0 / nal_hrd=none / filler=0 / ip_ratio=1.40 / pb_ratio=1.30 / aq=1:1.00
Language : English
Default : Yes
Forced : No

Audio #1
ID : 2
Format : AC-3
Format/Info : Audio Coding 3
Muxing mode : Header stripping
Codec ID : A_AC3
Duration : 1 h 30 min
Bit rate mode : Constant
Bit rate : 448 kb/s
Channel(s) : 6 channels
Channel positions : Front: L C R, Side: L R, LFE
Sampling rate : 48.0 kHz
Frame rate : 31.250 FPS (1536 SPF)
Bit depth : 16 bits
Compression mode : Lossy
Stream size : 289 MiB (6%)
Title : MVO (Russian) DVD Group
Language : Russian
Service kind : Complete Main
Default : Yes
Forced : No

Audio #2
ID : 3
Format : AC-3
Format/Info : Audio Coding 3
Muxing mode : Header stripping
Codec ID : A_AC3
Duration : 1 h 30 min
Bit rate mode : Constant
Bit rate : 384 kb/s
Channel(s) : 6 channels
Channel positions : Front: L C R, Side: L R, LFE
Sampling rate : 48.0 kHz
Frame rate : 31.250 FPS (1536 SPF)
Bit depth : 16 bits
Compression mode : Lossy
Stream size : 248 MiB (5%)
Title : AVO (П.Карцев)
Language : Russian
Service kind : Complete Main
Default : No
Forced : No

Audio #3
ID : 4
Format : AC-3
Format/Info : Audio Coding 3
Muxing mode : Header stripping
Codec ID : A_AC3
Duration : 1 h 30 min
Bit rate mode : Constant
Bit rate : 384 kb/s
Channel(s) : 6 channels
Channel positions : Front: L C R, Side: L R, LFE
Sampling rate : 48.0 kHz
Frame rate : 31.250 FPS (1536 SPF)
Bit depth : 16 bits
Compression mode : Lossy
Stream size : 248 MiB (5%)
Title : AVO (Ю.Сербин)
Language : Russian
Service kind : Complete Main
Default : No
Forced : No

Audio #4
ID : 5
Format : AC-3
Format/Info : Audio Coding 3
Muxing mode : Header stripping
Codec ID : A_AC3
Duration : 1 h 30 min
Bit rate mode : Constant
Bit rate : 192 kb/s
Channel(s) : 2 channels
Channel positions : Front: L R
Sampling rate : 48.0 kHz
Frame rate : 31.250 FPS (1536 SPF)
Bit depth : 16 bits
Compression mode : Lossy
Stream size : 124 MiB (2%)
Title : AVO (Ю.Живов)
Language : Russian
Service kind : Complete Main
Default : No
Forced : No

Audio #5
ID : 6
Format : AC-3
Format/Info : Audio Coding 3
Muxing mode : Header stripping
Codec ID : A_AC3
Duration : 1 h 30 min
Bit rate mode : Constant
Bit rate : 192 kb/s
Channel(s) : 2 channels
Channel positions : Front: L R
Sampling rate : 48.0 kHz
Frame rate : 31.250 FPS (1536 SPF)
Bit depth : 16 bits
Compression mode : Lossy
Stream size : 124 MiB (2%)
Title : AVO (С.Визгунов)
Language : Russian
Service kind : Complete Main
Default : No
Forced : No

Audio #6
ID : 7
Format : AC-3
Format/Info : Audio Coding 3
Muxing mode : Header stripping
Codec ID : A_AC3
Duration : 1 h 30 min
Bit rate mode : Constant
Bit rate : 192 kb/s
Channel(s) : 2 channels
Channel positions : Front: L R
Sampling rate : 48.0 kHz
Frame rate : 31.250 FPS (1536 SPF)
Bit depth : 16 bits
Compression mode : Lossy
Stream size : 124 MiB (2%)
Title : VO (Russian)
Language : Russian
Service kind : Complete Main
Default : No
Forced : No

Audio #7
ID : 8
Format : AC-3
Format/Info : Audio Coding 3
Muxing mode : Header stripping
Codec ID : A_AC3
Duration : 1 h 30 min
Bit rate mode : Constant
Bit rate : 192 kb/s
Channel(s) : 2 channels
Channel positions : Front: L R
Sampling rate : 48.0 kHz
Frame rate : 31.250 FPS (1536 SPF)
Bit depth : 16 bits
Compression mode : Lossy
Stream size : 124 MiB (2%)
Title : Original (English)
Language : English
Service kind : Complete Main
Default : No
Forced : No

Text #1
ID : 9
Format : UTF-8
Codec ID : S_TEXT/UTF8
Codec ID/Info : UTF-8 Plain Text
Title : Rus
Language : Russian
Default : No
Forced : No

Text #2
ID : 10
Format : UTF-8
Codec ID : S_TEXT/UTF8
Codec ID/Info : UTF-8 Plain Text
Title : Eng
Language : English
Default : No
Forced : No

Menu
00:00:00.000 : en:00:00:00.000
00:07:36.456 : en:00:07:36.456
00:16:14.098 : en:00:16:14.098
00:26:44.603 : en:00:26:44.603
00:32:21.940 : en:00:32:21.940
00:39:24.112 : en:00:39:24.112
00:50:32.029 : en:00:50:32.029
00:55:59.356 : en:00:55:59.356
01:01:14.504 : en:01:01:14.504
01:07:20.620 : en:01:07:20.620
01:14:12.823 : en:01:14:12.823
01:25:24.119 : en:01:25:24.119




Скачать Исполнитель.желаний.Wishmaster.(Роберт.Куртцман).[1997.ужасы.фэнтези.BDRip].[720p].[MVO]+[AVO]x4+[VO]+[Оригинал.Eng]+[Sub.Rus.Eng]x2.torrent без регистрации
Золото ЗОЛОТАЯ РАЗДАЧА! СКАЧАННОЕ НЕ ЗАСЧИТЫВАЕТСЯ! Золото
Дата: Зарегистрирован   [ Тип: внутренний ] Как тут cкачать?
MAGNET ссылка
MAGNET ссылка


Скачать .torrent

14 KB

Статус: проверено DHT
Скачан: торрент - 4 раз, раздача полностью - 3 раз
Размер: 5,1 GB
Оценка:  - (Голосов: 0)
Поблагодарили: 0
Поделиться ссылкой на эту раздачу с друзьями:
В контактеFacebookОдноклассникиTwitterLivejournalМой МирLiveinternet
 

 
Показать сообщения:    


Вы не можете начинать темы
Вы не можете отвечать на сообщения
Вы не можете редактировать свои сообщения
Вы не можете удалять свои сообщения
Вы не можете голосовать в опросах
Вы не можете прикреплять файлы к сообщениям
Вы можете скачивать файлы