Loading...
Error

Скачать Мёртвые пташки / Dead Birds (Алекс Тернер) [2004, ужасы, триллер, вестерн, WEB-DLRip-AVC] [MVO]+[Sub Rus, Eng]x2 торрент без регистрации

Статистика раздачи
Размер:  746 MB   |    Скачан:  19 раз
Сидов:  1  [  0 KB/s  ]  
 
 
 
Автор Сообщение

Marsianka

[] 

Информация о фильме
Название: Мёртвые пташки
Оригинальное название: Dead Birds
Год выхода: 2004
Жанр: ужасы, триллер, вестерн
Режиссер: Алекс Тернер
В ролях: Генри Томас, Патрик Фьюджит, Никки Эйкокс, Майкл Шеннон, Мьюз Уотсон, Марк Бун Джуниор, Исайя Вашингтон, Харрис Манн, Мелани Абрамофф, Донна Биско

О фильме :
Америка, XIX век. В стране бушует гражданская война, а на войну, известно, списать можно многое. Примерно так думали несколько солдат, решивших воспользоваться всеобщим хаосом и ограбить банк. Налет удается, но Фортуна так переменчива. Остановившись переждать непогоду в заброшенном плантаторском доме, герои и не подозревали, что потревожили зловещие потусторонние силы, обитающие в его стенах. Переступив порог одержимого призраками особняка, они сами захлопнули дверцу ловушки, всякому угодившему в которую грозит неминуемая, страшная гибель. И это еще не все.



Страна: США
Студия: Silver Nitrate Pictures, Dead Birds Films
Продолжительность: 01:31:04
Перевод: Профессиональный (многоголосый закадровый)

Файл
Формат: MKV
Качество: WEB-DLRip-AVC
Видео: MPEG-4 AVC, 752x424, ~ 1068 Кбит/с
Аудио: AAC-LC, 2 ch, ~ 76 Кбит/с
Субтитры: Русские, английские
Общее
Уникальный идентификатор : 190154520809694527907757119340559668159 (0x8F0E6DB6AF529150B04EBF405B4F13BF)
Полное имя : D:MOVIESDead Birds 2004.ExKinoRay.mkv
Формат : Matroska
Версия формата : Version 4 / Version 2
Размер файла : 746 Мбайт
Продолжительность : 1 ч. 31 м.
Общий поток : 1145 Кбит/сек
Дата кодирования : UTC 2017-12-07 16:26:42
Программа кодирования : mkvmerge v15.0.0 ('Duel with the Devil') 64-bit
Библиотека кодирования : libebml v1.3.5 + libmatroska v1.4.5

Видео
Идентификатор : 1
Формат : AVC
Формат/Информация : Advanced Video Codec
Профиль формата : High@L4.1
Параметр CABAC формата : Да
Параметр RefFrames формата : 10 кадров
Идентификатор кодека : V_MPEG4/ISO/AVC
Продолжительность : 1 ч. 31 м.
Битрейт : 1068 Кбит/сек
Ширина : 752 пикселя
Высота : 424 пикселя
Соотношение сторон : 16:9
Режим частоты кадров : Постоянный
Частота кадров : 23,976 (24000/1001) кадра/сек
Цветовое пространство : YUV
Субдискретизация насыщенности : 4:2:0
Битовая глубина : 8 бит
Тип развёртки : Прогрессивная
Бит/(Пиксели*Кадры) : 0.140
Размер потока : 695 Мбайт (93%)
Библиотека кодирования : x264 core 152 r2851 ba24899
Настройки программы : cabac=1 / ref=10 / deblock=1:-3:-3 / analyse=0x3:0x133 / me=umh / subme=11 / psy=1 / psy_rd=1.00:0.10 / mixed_ref=1 / me_range=32 / chroma_me=1 / trellis=2 / 8x8dct=1 / cqm=0 / deadzone=21,11 / fast_pskip=0 / chroma_qp_offset=-3 / threads=6 / lookahead_threads=1 / sliced_threads=0 / nr=0 / decimate=0 / interlaced=0 / bluray_compat=0 / constrained_intra=0 / bframes=10 / b_pyramid=2 / b_adapt=2 / b_bias=0 / direct=3 / weightb=1 / open_gop=0 / weightp=2 / keyint=240 / keyint_min=23 / scenecut=40 / intra_refresh=0 / rc_lookahead=40 / rc=2pass / mbtree=0 / bitrate=1068 / ratetol=1.0 / qcomp=0.60 / qpmin=0 / qpmax=69 / qpstep=4 / cplxblur=20.0 / qblur=0.5 / vbv_maxrate=50000 / vbv_bufsize=62500 / nal_hrd=none / filler=0 / ip_ratio=1.40 / pb_ratio=1.30 / aq=1:1.00
Default : Да
Forced : Нет

Аудио
Идентификатор : 2
Формат : AAC
Формат/Информация : Advanced Audio Codec
Профиль формата : LC
Идентификатор кодека : A_AAC
Продолжительность : 1 ч. 31 м.
Битрейт : 76,0 Кбит/сек
Каналы : 2 канала
Расположение каналов : Front: L R
Частота : 48,0 КГц
Частота кадров : 46,875 кадров/сек (1024 SPF)
Метод сжатия : С потерями
Задержка видео : 9 мс.
Размер потока : 49,5 Мбайт (7%)
Default : Да
Forced : Нет

Текст #1
Идентификатор : 3
Формат : UTF-8
Идентификатор кодека : S_TEXT/UTF8
Идентификатор кодека/Информация : UTF-8 Plain Text
Продолжительность : 1 ч. 26 м.
Битрейт : 36 бит/сек
ElementCount : 595
Размер потока : 22,9 Кбайт (0%)
Язык : Russian
Default : Нет
Forced : Нет

Текст #2
Идентификатор : 4
Формат : UTF-8
Идентификатор кодека : S_TEXT/UTF8
Идентификатор кодека/Информация : UTF-8 Plain Text
Продолжительность : 1 ч. 23 м.
Битрейт : 25 бит/сек
ElementCount : 541
Размер потока : 15,9 Кбайт (0%)
Язык : English
Default : Нет
Forced : Нет

Меню
00:00:00.000 : en:Main Titles
00:02:36.000 : en:Who Are They?
00:07:02.000 : en:Another Good Plan
00:13:06.000 : en:Chewing Gold
00:18:18.000 : en:Cursing The Darkness
00:22:52.000 : en:Speculating
00:27:28.000 : en:A Killer's Regret
00:33:12.000 : en:Down the Well
00:39:59.000 : en:Things Are Different Now
00:44:21.000 : en:Under the Bed
00:50:02.000 : en:Seeing Demons
00:55:54.000 : en:Corner of the Room
01:01:53.000 : en:Making Sacrifices
01:08:01.000 : en:A Taste of Hell
01:09:21.000 : en:I Saw Everything
01:14:15.000 : en:Gold and Greed
01:19:43.000 : en:Field of Screams
01:22:24.000 : en:The Morning After
01:24:51.000 : en:Full Circle
01:27:01.000 : en:End Credits
Релиз от:



Скачать Мёртвые.пташки.Dead.Birds.(Алекс.Тернер).[2004.ужасы.триллер.вестерн.WEB-DLRip-AVC].[MVO]+[Sub.Rus.Eng]x2.torrent без регистрации
Золото ЗОЛОТАЯ РАЗДАЧА! СКАЧАННОЕ НЕ ЗАСЧИТЫВАЕТСЯ! Золото
Дата: Зарегистрирован   [ Тип: внутренний ] Как тут cкачать?
MAGNET ссылка
MAGNET ссылка


Скачать .torrent

16 KB

Статус: проверено DHT
Скачан: торрент - 19 раз, раздача полностью - 16 раз
Размер: 746 MB
Оценка:  - (Голосов: 0)
Поблагодарили: 0
Поделиться ссылкой на эту раздачу с друзьями:
В контактеFacebookОдноклассникиTwitterLivejournalМой МирLiveinternet
 

 
Показать сообщения:    


Вы не можете начинать темы
Вы не можете отвечать на сообщения
Вы не можете редактировать свои сообщения
Вы не можете удалять свои сообщения
Вы не можете голосовать в опросах
Вы не можете прикреплять файлы к сообщениям
Вы можете скачивать файлы