Loading...
Error

Скачать В тупике / Gridlock'd (Вонди Куртис-Холл) [1997, драма, комедия, криминал, ..., HDTVRip] [1080p] [MVO]+[DVO]+[VO]+[Eng]+[Sub Rus, Eng]x2 торрент без регистрации

Статистика раздачи
Размер:  6,88 GB   |    Скачан:  16 раз

Полного источника не было: 25 минут

 
 
 
Автор Сообщение

Marsianka

[] 

Название: В тупике
Оригинальное название: Gridlock'd
Год выхода: 1997
Страна: США
Студия: Def Pictures, Dragon Pictures, Interscope Communications
Продолжительность: 01:26:36
Жанр: драма, комедия, криминал, ...

Режиссер: Вонди Куртис-Холл
В ролях: Тупак Шакур, Тим Рот, Тэнди Ньютон, Чарльз Флайшер, Ховард Хессеман, Джеймс Пикенс мл., Джон Сейлз, Эрик Пэйн, Том Таулз, Том Райт, ...

О фильме: Кошмар новогоднего утра. Подружка Стретча и Спуна загибается от передозировки. Парни мечтают завязать с наркотиками. Против них все: Правительство, наркобизнес, тупые и злобные бандиты, тяжелое детство, погода, телевидение….. С Новым годом, Америка!…



Кодек: x264
Качество: HDTVRip 1080p
Видео: 1920x1040, 10000 kbps, 25 fps

- Профессиональный (многоголосый, закадровый) TV Россия
- Профессиональный (двуголосый, закадровый) R5
- Любительский (одноголосый, закадровый) D Cap Studio
- Субтитры
Аудио #1: AC-3, 2 ch, 224 kbps (Rus) - MVO Россия
Аудио #2: AC-3, 6 ch, 384 kbps (Rus) - DVO R5
Аудио #3: AC-3, 6 ch, 384 kbps (Rus) - VO D Cap Studio
Аудио #4: AC-3, 6 ch, 384 kbps (Eng)
Субтитры: Русские, Английские
За исходник спасибо - kisluk

Титры на исходнике обрывались почти сразу. Раздражало. Обрезал их полностью.

Первая дорога (MVO Россия) сделана наложением выделенного голоса на двуканальный оригинал какого то европейского DVD, звук с которого оказался лучше наших изданий.

Сравниваем DVD на предмет наполнения кадра с HDTV:

Общее
Уникальный идентификатор : 213312457194970182975062804448843112470 (0xA07A7C213E6EEE76B2FD2F6F2537A016)
Полное имя : В тупике (Gridlock'd) 1997 HDTVRip 1080p.mkv
Формат : Matroska
Версия формата : Version 2
Размер файла : 6,88 Гбайт
Продолжительность : 1 ч. 26 м.
Общий поток : 11,4 Мбит/сек
Дата кодирования : UTC 2017-07-08 00:50:07
Программа кодирования : mkvmerge v4.0.0 ('The Stars were mine') сборка от Jun 6 2010 16:18:42
Библиотека кодирования : libebml v1.0.0 + libmatroska v1.0.0

Видео
Идентификатор : 1
Формат : AVC
Формат/Информация : Advanced Video Codec
Профиль формата : High@L4.1
Параметр CABAC формата : Да
Параметр ReFrames формата : 4 кадра
Идентификатор кодека : V_MPEG4/ISO/AVC
Продолжительность : 1 ч. 26 м.
Битрейт : 10000 Кбит/сек
Ширина : 1920 пикселей
Высота : 1040 пикселей
Соотношение сторон : 1,85:1
Режим частоты кадров : Постоянный
Частота кадров : 23,976 (24000/1001) кадра/сек
Цветовое пространство : YUV
Субдискретизация насыщенности : 4:2:0
Битовая глубина : 8 бит
Тип развёртки : Прогрессивная
Бит/(Пиксели*Кадры) : 0.209
Размер потока : 5,91 Гбайт (86%)
Библиотека кодирования : x264 core 146 r2538 121396c
Настройки программы : cabac=1 / ref=4 / deblock=1:-2:-2 / analyse=0x3:0x133 / me=umh / subme=11 / psy=1 / psy_rd=1.00:0.00 / mixed_ref=1 / me_range=32 / chroma_me=1 / trellis=2 / 8x8dct=1 / cqm=0 / deadzone=21,11 / fast_pskip=0 / chroma_qp_offset=-2 / threads=12 / lookahead_threads=2 / sliced_threads=0 / nr=0 / decimate=0 / interlaced=0 / bluray_compat=0 / constrained_intra=0 / bframes=12 / b_pyramid=2 / b_adapt=2 / b_bias=0 / direct=3 / weightb=1 / open_gop=0 / weightp=2 / keyint=240 / keyint_min=23 / scenecut=40 / intra_refresh=0 / rc=2pass / mbtree=0 / bitrate=10000 / ratetol=1.0 / qcomp=0.60 / qpmin=0 / qpmax=69 / qpstep=4 / cplxblur=20.0 / qblur=0.5 / ip_ratio=1.40 / pb_ratio=1.30 / aq=1:0.80
Язык : English
Default : Нет
Forced : Нет

Аудио #1
Идентификатор : 2
Формат : AC-3
Формат/Информация : Audio Coding 3
Расширение режима : CM (complete main)
Параметр Endianness формата : Big
Идентификатор кодека : A_AC3
Продолжительность : 1 ч. 26 м.
Вид битрейта : Постоянный
Битрейт : 224 Кбит/сек
Каналы : 2 канала
Расположение каналов : Front: L R
Частота : 48,0 КГц
Частота кадров : 31,250 кадров/сек (1536 spf)
Метод сжатия : С потерями
Размер потока : 139 Мбайт (2%)
Заголовок : MVO Россия
Язык : Russian
Default : Нет
Forced : Нет

Аудио #2
Идентификатор : 3
Формат : AC-3
Формат/Информация : Audio Coding 3
Расширение режима : CM (complete main)
Параметр Endianness формата : Big
Идентификатор кодека : A_AC3
Продолжительность : 1 ч. 26 м.
Вид битрейта : Постоянный
Битрейт : 384 Кбит/сек
Каналы : 6 каналов
Расположение каналов : Front: L C R, Side: L R, LFE
Частота : 48,0 КГц
Частота кадров : 31,250 кадров/сек (1536 spf)
Метод сжатия : С потерями
Размер потока : 238 Мбайт (3%)
Заголовок : DVO R5
Язык : Russian
Default : Нет
Forced : Нет

Аудио #3
Идентификатор : 4
Формат : AC-3
Формат/Информация : Audio Coding 3
Расширение режима : CM (complete main)
Параметр Endianness формата : Big
Идентификатор кодека : A_AC3
Продолжительность : 1 ч. 26 м.
Вид битрейта : Постоянный
Битрейт : 384 Кбит/сек
Каналы : 6 каналов
Расположение каналов : Front: L C R, Side: L R, LFE
Частота : 48,0 КГц
Частота кадров : 31,250 кадров/сек (1536 spf)
Метод сжатия : С потерями
Размер потока : 238 Мбайт (3%)
Заголовок : VO D Cap Studio
Язык : Russian
Default : Нет
Forced : Нет

Аудио #4
Идентификатор : 5
Формат : AC-3
Формат/Информация : Audio Coding 3
Расширение режима : CM (complete main)
Параметр Endianness формата : Big
Идентификатор кодека : A_AC3
Продолжительность : 1 ч. 26 м.
Вид битрейта : Постоянный
Битрейт : 384 Кбит/сек
Каналы : 6 каналов
Расположение каналов : Front: L C R, Side: L R, LFE
Частота : 48,0 КГц
Частота кадров : 31,250 кадров/сек (1536 spf)
Метод сжатия : С потерями
Размер потока : 238 Мбайт (3%)
Язык : English
Default : Нет
Forced : Нет

Текст #1
Идентификатор : 6
Формат : UTF-8
Идентификатор кодека : S_TEXT/UTF8
Идентификатор кодека/Информация : UTF-8 Plain Text
Язык : Russian
Default : Нет
Forced : Нет

Текст #2
Идентификатор : 7
Формат : UTF-8
Идентификатор кодека : S_TEXT/UTF8
Идентификатор кодека/Информация : UTF-8 Plain Text
Язык : English
Default : Нет
Forced : Нет



Скачать В.тупике.Gridlock'd.(Вонди.Куртис-Холл).[1997.драма.комедия.криминал.HDTVRip].[1080p].[MVO]+[DVO]+[VO]+[Eng]+[Sub.Rus.Eng]x2.torrent без регистрации
Золото ЗОЛОТАЯ РАЗДАЧА! СКАЧАННОЕ НЕ ЗАСЧИТЫВАЕТСЯ! Золото
Дата: Зарегистрирован   [ Тип: внутренний ] Как тут cкачать?
MAGNET ссылка
MAGNET ссылка


Скачать .torrent

35 KB

Статус: проверено DHT
Скачан: торрент - 16 раз, раздача полностью - 0 раз
Размер: 6,88 GB
Оценка:  - (Голосов: 0)
Поблагодарили: 0
Поделиться ссылкой на эту раздачу с друзьями:
В контактеFacebookОдноклассникиTwitterLivejournalМой МирLiveinternet
 

 
Показать сообщения:    


Вы не можете начинать темы
Вы не можете отвечать на сообщения
Вы не можете редактировать свои сообщения
Вы не можете удалять свои сообщения
Вы не можете голосовать в опросах
Вы не можете прикреплять файлы к сообщениям
Вы можете скачивать файлы