Loading...
Error

Скачать Дом из песка и тумана / House of Sand and Fog (Вадим Перельман) [2003, драма, экранизация, WEB-DL] [1080p] [Dub]+[MVO]+[DVO]+[AVO]x2+[Оригинал Eng]+[Sub Rus, Eng]x2 торрент без регистрации

Статистика раздачи
Размер:  12,81 GB   |    Скачан:  8 раз
Сидов:  1  [  0 KB/s  ]  
 
 
 
Автор Сообщение

Marsianka

[] 

Информация о фильме
Название: Дом из песка и тумана
Оригинальное название: House of Sand and Fog
Год выхода: 2003
Жанр: драма, экранизация
Страна: США
Студия: Bisgrove Entertainment, Cobalt Media Group, DreamWorks SKG
Продолжительность: 02:06:20
Перевод: Дублированный, профессиональный многоголосый, профессиональный двухголосый, авторский одноголосый
Режиссер: Вадим Перельман / Vadim Perelman
В ролях: Дженнифер Коннелли, Бен Кингсли, Рон Элдард, Фрэнсис Фишер, Ким Диккенс, Шохре Агдашлу, Джонатан Ахдут, Нави Рават, Карлос Гомес, Киа Джэм, Бонита Фридериси
О фильме
Захватывающая история американской мечты, обреченной на крах, рассказывает о двух людях, готовых на всё, лишь бы доказать свое право на владение домом. Речь идет всего-навсего о небольшом бунгало в Северной Калифорнии, но для Кэти Николо это последняя надежда на возвращение к жизни. В результате бюрократической ошибки ее выселяют, и Кэти оказывается на улице. Ей остается лишь беспомощно наблюдать, как дом продают на аукционе за мизерную цену.


Файл
Качество: WEB-DL 1080p
Видео: MPEG-4 AVC, 1920x1080 (16:9), 11500 kbps, 23.976 fps, 0.231 bpp
Аудио 1: Russian: 48 kHz, AC3, 5.1 ch, 448 kbps - DUB, R5
Аудио 2: Russian: 48 kHz, AC3, 5.1 ch, 384 kbps - MVO
Аудио 3: Russian: 48 kHz, AC3, 2.0 ch, 192 kbps - DVO, Tycoon-Studio
Аудио 4: Russian: 48 kHz, AC3, 5.1 ch, 640 kbps - AVO, Ю. Сербин
Аудио 5: Russian: 48 kHz, AC3, 5.1 ch, 448 kbps - AVO, Е. Рудой
Аудио 6: English: 48 kHz, EAC3, 5.1 ch, 640 kbps - Оригинал
Субтитры: Русские, английские
Навигация по главам: есть
• Исходник видео WEB-DL Amazon
• За синхронизацию дорог спасибо mzma
Приз Национального совета обозревателей за дебют, премия «Независимый дух» за второплановую женскую роль (Шохре Агдашлу).

Оскар, 2004 год
Номинации (3):
Лучшая мужская роль (Бен Кингсли)
Лучшая женская роль второго плана (Шоре Агдашлу)
Лучший оригинальный саундтрек

Золотой глобус, 2004 год
Номинации (1):
Лучшая мужская роль (драма) (Бен Кингсли)

Премия Гильдии актеров, 2004 год
Номинации (1):
Лучшая мужская роль (Бен Кингсли)
General
Unique ID : 226418793425934844724277194732924062670 (0xAA56AC6574DE386C929904BE41DC4BCE)
Complete name : House.of.Sand.and.Fog.2003.WEB-DL.1080p.mkv
Format : Matroska
Format version : Version 2
File size : 12.8 GiB
Duration : 2 h 6 min
Overall bit rate mode : Variable
Overall bit rate : 14.5 Mb/s
Encoded date : UTC 2017-12-07 21:05:24
Writing application : mkvmerge v5.8.0 ('No Sleep / Pillow') built on Sep 2 2012 15:37:04
Writing library : libebml v1.2.3 + libmatroska v1.3.0

Video
ID : 1
Format : AVC
Format/Info : Advanced Video Codec
Format profile : High@L4
Format settings, CABAC : Yes
Format settings, RefFrames : 4 frames
Codec ID : V_MPEG4/ISO/AVC
Duration : 2 h 6 min
Bit rate mode : Variable
Bit rate : 11.5 Mb/s
Maximum bit rate : 15.0 Mb/s
Width : 1 920 pixels
Height : 1 080 pixels
Display aspect ratio : 16:9
Frame rate mode : Constant
Frame rate : 23.976 (24000/1001) FPS
Color space : YUV
Chroma subsampling : 4:2:0
Bit depth : 8 bits
Scan type : Progressive
Bits/(Pixel*Frame) : 0.231
Stream size : 10.1 GiB (79%)
Language : English
Default : Yes
Forced : No
Color range : Limited
Color primaries : BT.709
Transfer characteristics : BT.709
Matrix coefficients : BT.709

Audio #1
ID : 2
Format : AC-3
Format/Info : Audio Coding 3
Format settings, Endianness : Big
Codec ID : A_AC3
Duration : 2 h 6 min
Bit rate mode : Constant
Bit rate : 448 kb/s
Channel(s) : 6 channels
Channel positions : Front: L C R, Side: L R, LFE
Sampling rate : 48.0 kHz
Frame rate : 31.250 FPS (1536 SPF)
Bit depth : 16 bits
Compression mode : Lossy
Stream size : 405 MiB (3%)
Title : DUB | R5
Language : Russian
Service kind : Complete Main
Default : Yes
Forced : No

Audio #2
ID : 3
Format : AC-3
Format/Info : Audio Coding 3
Format settings, Endianness : Big
Codec ID : A_AC3
Duration : 2 h 6 min
Bit rate mode : Constant
Bit rate : 384 kb/s
Channel(s) : 6 channels
Channel positions : Front: L C R, Side: L R, LFE
Sampling rate : 48.0 kHz
Frame rate : 31.250 FPS (1536 SPF)
Bit depth : 16 bits
Compression mode : Lossy
Stream size : 347 MiB (3%)
Title : MVO | DVD5
Language : Russian
Service kind : Complete Main
Default : No
Forced : No

Audio #3
ID : 4
Format : AC-3
Format/Info : Audio Coding 3
Format settings, Endianness : Big
Codec ID : A_AC3
Duration : 2 h 6 min
Bit rate mode : Constant
Bit rate : 192 kb/s
Channel(s) : 2 channels
Channel positions : Front: L R
Sampling rate : 48.0 kHz
Frame rate : 31.250 FPS (1536 SPF)
Bit depth : 16 bits
Compression mode : Lossy
Stream size : 174 MiB (1%)
Title : DVO | Tycoon
Language : Russian
Service kind : Complete Main
Default : No
Forced : No

Audio #4
ID : 5
Format : AC-3
Format/Info : Audio Coding 3
Format settings, Endianness : Big
Codec ID : A_AC3
Duration : 2 h 6 min
Bit rate mode : Constant
Bit rate : 640 kb/s
Channel(s) : 6 channels
Channel positions : Front: L C R, Side: L R, LFE
Sampling rate : 48.0 kHz
Frame rate : 31.250 FPS (1536 SPF)
Bit depth : 16 bits
Compression mode : Lossy
Stream size : 578 MiB (4%)
Title : AVO | Ю. Сербин
Language : Russian
Service kind : Complete Main
Default : No
Forced : No

Audio #5
ID : 6
Format : AC-3
Format/Info : Audio Coding 3
Format settings, Endianness : Big
Codec ID : A_AC3
Duration : 2 h 6 min
Bit rate mode : Constant
Bit rate : 448 kb/s
Channel(s) : 6 channels
Channel positions : Front: L C R, Side: L R, LFE
Sampling rate : 48.0 kHz
Frame rate : 31.250 FPS (1536 SPF)
Bit depth : 16 bits
Compression mode : Lossy
Stream size : 405 MiB (3%)
Title : AVO | Е. Рудой
Language : Russian
Service kind : Complete Main
Default : No
Forced : No

Audio #6
ID : 7
Format : E-AC-3
Format/Info : Enhanced Audio Coding 3
Format settings, Endianness : Big
Codec ID : A_EAC3
Duration : 2 h 6 min
Bit rate mode : Constant
Bit rate : 640 kb/s
Channel(s) : 6 channels
Channel positions : Front: L C R, Side: L R, LFE
Sampling rate : 48.0 kHz
Frame rate : 187.500 FPS (256 SPF)
Compression mode : Lossy
Stream size : 578 MiB (4%)
Title : Original
Language : English
Service kind : Complete Main
Default : No
Forced : No

Text #1
ID : 8
Format : UTF-8
Codec ID : S_TEXT/UTF8
Codec ID/Info : UTF-8 Plain Text
Language : Russian
Default : No
Forced : No

Text #2
ID : 9
Format : UTF-8
Codec ID : S_TEXT/UTF8
Codec ID/Info : UTF-8 Plain Text
Language : English
Default : No
Forced : No

Text #3
ID : 10
Format : UTF-8
Codec ID : S_TEXT/UTF8
Codec ID/Info : UTF-8 Plain Text
Title : SDH
Language : English
Default : No
Forced : No

Menu
00:00:11.007 : en:Chapter 1
00:05:10.333 : en:Chapter 2
00:12:06.749 : en:Chapter 3
00:17:00.626 : en:Chapter 4
00:21:49.623 : en:Chapter 5
00:26:22.354 : en:Chapter 6
00:31:29.786 : en:Chapter 7
00:37:38.488 : en:Chapter 8
00:42:13.929 : en:Chapter 9
00:47:46.845 : en:Chapter 10
00:52:01.683 : en:Chapter 11
00:57:32.430 : en:Chapter 12
01:03:37.879 : en:Chapter 13
01:09:04.288 : en:Chapter 14
01:13:34.308 : en:Chapter 15
01:18:43.909 : en:Chapter 16
01:24:27.127 : en:Chapter 17
01:30:36.913 : en:Chapter 18
01:34:24.640 : en:Chapter 19
01:41:44.914 : en:Chapter 20
01:45:18.544 : en:Chapter 21
01:50:01.034 : en:Chapter 22
01:55:11.177 : en:Chapter 23
02:02:48.259 : en:Chapter 24
02:06:19.178 : en:Chapter 25



Скачать Дом.из.песка.и.тумана.House.of.Sand.and.Fog.(Вадим.Перельман).[2003.драма.экранизация.WEB-DL].[1080p].[Dub]+[MVO]+[DVO]+[AVO]x2+[Оригинал.Eng]+[Sub.Rus.Eng]x2.torrent без регистрации
Золото ЗОЛОТАЯ РАЗДАЧА! СКАЧАННОЕ НЕ ЗАСЧИТЫВАЕТСЯ! Золото
Дата: Зарегистрирован   [ Тип: внутренний ] Как тут cкачать?
MAGNET ссылка
MAGNET ссылка


Скачать .torrent

65 KB

Статус: проверено DHT
Скачан: торрент - 8 раз, раздача полностью - 1 раз
Размер: 12,81 GB
Оценка:  - (Голосов: 0)
Поблагодарили: 0
Поделиться ссылкой на эту раздачу с друзьями:
В контактеFacebookОдноклассникиTwitterLivejournalМой МирLiveinternet
 

 
Показать сообщения:    


Вы не можете начинать темы
Вы не можете отвечать на сообщения
Вы не можете редактировать свои сообщения
Вы не можете удалять свои сообщения
Вы не можете голосовать в опросах
Вы не можете прикреплять файлы к сообщениям
Вы можете скачивать файлы