Loading...
Error

Скачать Чужой против Хищника / AVP: Alien vs. Predator (Пол В.С. Андерсон) [2004, ужасы, фантастика, боевик, WEB-DL] [1080p] [Театральная версия] [Open Matte] [Dub]+[MVO]+[DVO]x2+[AVO]x4+[Eng]x2+[Sub Rus, Eng]x2 торрент без регистрации

Статистика раздачи
Размер:  11,9 GB   |    Скачан:  10 раз
Сидов:  1  [  0 KB/s  ]  
 
 
 
Автор Сообщение

Marsianka

[] 

Информация о фильме
Название: Чужой против Хищника
Оригинальное название: AVP: Alien vs. Predator
Год выхода: 2004
Жанр: ужасы, фантастика, боевик
Режиссер: Пол В.С. Андерсон / Paul W.S. Anderson
В ролях: Санаа Лэтэн, Рауль Бова, Лэнс Хенриксен, Юэн Бремнер, Колин Сэлмон, Томми Флэнаган, Джозеф Рай, Агат Де Ла Булае, Карстен Норгаард, Сэм Тротон

О фильме:
Наши дни. Группа ученых отправляется в Антарктиду, чтобы отыскать колыбель цивилизации, царившей на Земле многие тысячелетия назад. Под толщей льда они находят пирамиды, в которых обнаруживают человеческие скелеты и следы жизнедеятельности чужих.
Однако они еще не знают, что уже находятся под колпаком у хозяев этого города - хищников, и их дни сочтены. Человеческая приманка поможет хищникам, наконец, завершить войну двух космических цивилизаций…



Страна: США
Студия: 20 Century Fox
Продолжительность: 01:40:55
Перевод: Профессиональный (дублированный) BD CEE
Перевод 2: Профессиональный (многоголосый закадровый)
Перевод 3: Профессиональный (двухголосый закадровый) Tycoon
Перевод 4: Профессиональный (двухголосый закадровый) Олег Куценко и Людмила Ильина
Перевод 5: Авторский (одноголосый закадровый) С. Визгунов
Перевод 6: Авторский (одноголосый закадровый) Ю. Живов
Перевод 7: Авторский (одноголосый закадровый) А. Медведев
Перевод 8: Авторский (одноголосый закадровый) А. Дольский
За переводы Живова и Медведева большое спасибо koska1.
За перевод Андрея Дольского большое спасибо maxwell_kennedy
Синхронизация Живова, Медведева и Дольского - maxwell_kennedy
Цитатаmaxwell_kennedy писал:

По поводу дорог:
Живов и Медведев были взяты с расширенной версии, хотя изначально переводы сделаны под театральную. Так как чистые голоса я не нашёл, то была проведена синхронизация с минимальными отличиями от оригинальной театральной дорожки.

Дольский взят с пиратского DVD (впервые ЧпХ смотрел в этом переводе, сам диск нашёл недавно). Голос наложен на экранку. Как положено - визг, крики, смех в зале. Есть погрешности в переводе.
Синхронизировал как только мог. Есть немного заплаток оригинальной дорожкой. Дорожка не самого лучшего качества, добавлена в целях ознакомления и для любителей переводов этого мэтра
Файл
Кодек: AVC
Качество: WEB-DL 1080p
Видео: 1920x1080, 23.976 fps, AVC, ~12.4 Mbps

Аудио: 48 kHz, DTS, 6ch, ~768.00 kbps avg /RUS/ Дубляж (Blu-ray CEE)
Аудио 2: 48 kHz, AC3, 2ch, ~192.00 kbps avg /RUS/ Многоголосый закадровый
Аудио 3: 48 kHz, AC3, 6ch, ~448.00 kbps avg /RUS/ Двухголосый закадровый (Tycoon)
Аудио 4: 48 kHz, AC3, 2ch, ~192.00 kbps avg /RUS/ Двухголосый закадровый (Олег Куценко и Людмила Ильина)
Аудио 5: 48 kHz, AC3, 2ch, ~192.00 kbps avg /RUS/ Авторский (С. Визгунов)
Аудио 6: 48 kHz, AC3, 2ch, ~192.00 kbps avg /RUS/ Авторский (Ю. Живов)
Аудио 7: 48 kHz, AC3, 2ch, ~192.00 kbps avg /RUS/ Авторский (А. Медведев)
Аудио 8: 48 kHz, AC3, 2ch, ~192.00 kbps avg /RUS/ Авторский (А. Дольский)
Аудио 9: 48 kHz, DTS, 6ch, ~1509.00 kbps avg /ENG/
Аудио 10: 48 kHz, E-AC3, 6ch, ~640.00 kbps avg /ENG/ Amazon
Субтитры: русские / английские
Семпл
Общее
Уникальный идентификатор : 186063288557975843484439683496624646908 (0x8BFA7C63D809341B836ADA370ED9EAFC)
Полное имя : F:DownloadsAVP Alien vs Predator (TC) (2004)(Open Matte) WEB-DL.mkv
Формат : Matroska
Версия формата : Version 4 / Version 2
Размер файла : 11,9 Гбайт
Продолжительность : 1 ч. 40 м.
Режим общего битрейта : Переменный
Общий поток : 16,9 Мбит/сек
Дата кодирования : UTC 2017-12-07 15:27:18
Программа кодирования : mkvmerge v18.0.0 ('Apricity') 64-bit
Библиотека кодирования : libebml v1.3.5 + libmatroska v1.4.8

Видео
Идентификатор : 1
Формат : AVC
Формат/Информация : Advanced Video Codec
Профиль формата : High@L4
Параметр CABAC формата : Да
Параметр ReFrames формата : 4 кадра
Идентификатор кодека : V_MPEG4/ISO/AVC
Продолжительность : 1 ч. 40 м.
Вид битрейта : Переменный
Битрейт : 12,4 Мбит/сек
Максимальный битрейт : 15,0 Мбит/сек
Ширина : 1920 пикселей
Высота : 1080 пикселей
Соотношение сторон : 16:9
Режим частоты кадров : Постоянный
Частота кадров : 23,976 (24000/1001) кадра/сек
Цветовое пространство : YUV
Субдискретизация насыщенности : 4:2:0
Битовая глубина : 8 бит
Тип развёртки : Прогрессивная
Бит/(Пиксели*Кадры) : 0.249
Размер потока : 8,72 Гбайт (73%)
Default : Да
Forced : Нет
Цветовой диапазон : Limited
Основные цвета : BT.709
Характеристики трансфера : BT.709
Коэффициенты матрицы : BT.709

Аудио #1
Идентификатор : 2
Формат : DTS
Формат/Информация : Digital Theater Systems
Режим : 16
Параметр Endianness формата : Big
Идентификатор кодека : A_DTS
Продолжительность : 1 ч. 40 м.
Вид битрейта : Постоянный
Битрейт : 768 Кбит/сек
Каналы : 6 каналов
Расположение каналов : Front: L C R, Side: L R, LFE
Частота : 48,0 КГц
Частота кадров : 93,750 кадра/сек (512 spf)
Битовая глубина : 24 бит
Метод сжатия : С потерями
Размер потока : 554 Мбайт (5%)
Заголовок : DUB CEE
Язык : Russian
Default : Да
Forced : Нет

Аудио #2
Идентификатор : 3
Формат : AC-3
Формат/Информация : Audio Coding 3
Расширение режима : CM (complete main)
Параметр Endianness формата : Big
Идентификатор кодека : A_AC3
Продолжительность : 1 ч. 40 м.
Вид битрейта : Постоянный
Битрейт : 192 Кбит/сек
Каналы : 2 канала
Расположение каналов : Front: L R
Частота : 48,0 КГц
Частота кадров : 31,250 кадров/сек (1536 spf)
Метод сжатия : С потерями
Размер потока : 139 Мбайт (1%)
Заголовок : MVO
Default : Нет
Forced : Нет

Аудио #3
Идентификатор : 4
Формат : AC-3
Формат/Информация : Audio Coding 3
Расширение режима : CM (complete main)
Параметр Endianness формата : Big
Идентификатор кодека : A_AC3
Продолжительность : 1 ч. 40 м.
Вид битрейта : Постоянный
Битрейт : 448 Кбит/сек
Каналы : 6 каналов
Расположение каналов : Front: L C R, Side: L R, LFE
Частота : 48,0 КГц
Частота кадров : 31,250 кадров/сек (1536 spf)
Метод сжатия : С потерями
Размер потока : 323 Мбайт (3%)
Заголовок : DVO (Tycoon)
Язык : Russian
Default : Нет
Forced : Нет

Аудио #4
Идентификатор : 5
Формат : AC-3
Формат/Информация : Audio Coding 3
Расширение режима : CM (complete main)
Параметр Endianness формата : Big
Идентификатор кодека : A_AC3
Продолжительность : 1 ч. 40 м.
Вид битрейта : Постоянный
Битрейт : 192 Кбит/сек
Каналы : 2 канала
Расположение каналов : Front: L R
Частота : 48,0 КГц
Частота кадров : 31,250 кадров/сек (1536 spf)
Метод сжатия : С потерями
Размер потока : 139 Мбайт (1%)
Заголовок : DVO (Олег Куценко и Людмила Ильина)
Default : Нет
Forced : Нет

Аудио #5
Идентификатор : 6
Формат : AC-3
Формат/Информация : Audio Coding 3
Расширение режима : CM (complete main)
Параметр Endianness формата : Big
Идентификатор кодека : A_AC3
Продолжительность : 1 ч. 40 м.
Вид битрейта : Постоянный
Битрейт : 192 Кбит/сек
Каналы : 2 канала
Расположение каналов : Front: L R
Частота : 48,0 КГц
Частота кадров : 31,250 кадров/сек (1536 spf)
Метод сжатия : С потерями
Размер потока : 139 Мбайт (1%)
Заголовок : AVO (Сергей Визгунов)
Язык : Russian
Default : Нет
Forced : Нет

Аудио #6
Идентификатор : 7
Формат : AC-3
Формат/Информация : Audio Coding 3
Расширение режима : CM (complete main)
Параметр Endianness формата : Big
Идентификатор кодека : A_AC3
Продолжительность : 1 ч. 40 м.
Вид битрейта : Постоянный
Битрейт : 192 Кбит/сек
Каналы : 2 канала
Расположение каналов : Front: L R
Частота : 48,0 КГц
Частота кадров : 31,250 кадров/сек (1536 spf)
Метод сжатия : С потерями
Размер потока : 139 Мбайт (1%)
Заголовок : AVO (Юрий Живов)
Язык : Russian
Default : Нет
Forced : Нет

Аудио #7
Идентификатор : 8
Формат : AC-3
Формат/Информация : Audio Coding 3
Расширение режима : CM (complete main)
Параметр Endianness формата : Big
Идентификатор кодека : A_AC3
Продолжительность : 1 ч. 40 м.
Вид битрейта : Постоянный
Битрейт : 192 Кбит/сек
Каналы : 2 канала
Расположение каналов : Front: L R
Частота : 48,0 КГц
Частота кадров : 31,250 кадров/сек (1536 spf)
Метод сжатия : С потерями
Размер потока : 139 Мбайт (1%)
Заголовок : AVO (Алексей Медведев)
Язык : Russian
Default : Нет
Forced : Нет

Аудио #8
Идентификатор : 9
Формат : AC-3
Формат/Информация : Audio Coding 3
Расширение режима : CM (complete main)
Параметр Endianness формата : Big
Идентификатор кодека : A_AC3
Продолжительность : 1 ч. 40 м.
Вид битрейта : Постоянный
Битрейт : 192 Кбит/сек
Каналы : 2 канала
Расположение каналов : Front: L R
Частота : 48,0 КГц
Частота кадров : 31,250 кадров/сек (1536 spf)
Метод сжатия : С потерями
Размер потока : 139 Мбайт (1%)
Заголовок : AVO (Андрей Дольский)
Язык : Russian
Default : Нет
Forced : Нет

Аудио #9
Идентификатор : 10
Формат : DTS
Формат/Информация : Digital Theater Systems
Режим : 16
Параметр Endianness формата : Big
Идентификатор кодека : A_DTS
Продолжительность : 1 ч. 40 м.
Вид битрейта : Постоянный
Битрейт : 1509 Кбит/сек
Каналы : 6 каналов
Расположение каналов : Front: L C R, Side: L R, LFE
Частота : 48,0 КГц
Частота кадров : 93,750 кадра/сек (512 spf)
Битовая глубина : 24 бит
Метод сжатия : С потерями
Размер потока : 1,06 Гбайт (9%)
Язык : English
Default : Нет
Forced : Нет

Аудио #10
Идентификатор : 11
Формат : E-AC-3
Формат/Информация : Audio Coding 3
Параметр Endianness формата : Big
Идентификатор кодека : A_EAC3
Продолжительность : 1 ч. 40 м.
Вид битрейта : Постоянный
Битрейт : 640 Кбит/сек
Каналы : 6 каналов
Расположение каналов : Front: L C R, Side: L R, LFE
Частота : 48,0 КГц
Частота кадров : 187,500 кадров/сек (256 spf)
Метод сжатия : С потерями
Размер потока : 462 Мбайт (4%)
Заголовок : Amazon
Язык : English
Default : Нет
Forced : Нет

Текст #1
Идентификатор : 12
Формат : UTF-8
Идентификатор кодека : S_TEXT/UTF8
Идентификатор кодека/Информация : UTF-8 Plain Text
Продолжительность : 1 ч. 16 м.
Битрейт : 1 бит/сек
Count of elements : 11
Размер потока : 645 байт (0%)
Заголовок : Forced
Язык : Russian
Default : Да
Forced : Нет

Текст #2
Идентификатор : 13
Формат : UTF-8
Идентификатор кодека : S_TEXT/UTF8
Идентификатор кодека/Информация : UTF-8 Plain Text
Продолжительность : 1 ч. 39 м.
Битрейт : 38 бит/сек
Count of elements : 451
Размер потока : 27,9 Кбайт (0%)
Язык : Russian
Default : Нет
Forced : Нет

Текст #3
Идентификатор : 14
Формат : UTF-8
Идентификатор кодека : S_TEXT/UTF8
Идентификатор кодека/Информация : UTF-8 Plain Text
Продолжительность : 1 ч. 38 м.
Битрейт : 23 бит/сек
Count of elements : 490
Размер потока : 17,2 Кбайт (0%)
Язык : English
Default : Нет
Forced : Нет

Текст #4
Идентификатор : 15
Формат : UTF-8
Идентификатор кодека : S_TEXT/UTF8
Идентификатор кодека/Информация : UTF-8 Plain Text
Продолжительность : 1 ч. 25 м.
Битрейт : 33 бит/сек
Count of elements : 667
Размер потока : 21,0 Кбайт (0%)
Заголовок : SHD
Язык : English
Default : Нет
Forced : Нет

Меню
00:00:10.002 : en:Something in Sector 14
00:02:30.110 : en:Weyland's Offer
00:06:45.626 : en:Below the Ice
00:10:07.942 : en:The Better Chance
00:12:49.907 : en:Three Simple Rules
00:16:14.724 : en:Razorback Point
00:20:30.398 : en:The Tunnel
00:23:29.993 : en:Going Down
00:25:52.176 : en:The Pyramid
00:27:47.708 : en:Awakening
00:30:44.093 : en:First Blood
00:32:56.099 : en:Chosen Ones
00:37:01.595 : en:The Sarcophagus
00:39:55.697 : en:The Spawning
00:44:39.714 : en:Prey
00:48:20.899 : en:Death Maze
00:51:26.167 : en:Battle Zone
00:56:50.115 : en:Weyland's Last Stand
00:58:36.848 : en:Rite of Passage
01:01:13.270 : :Gods and Monsters
01:04:35.498 : en:The Enemy of My Enemy
01:06:12.844 : en:Alone
01:08:17.553 : en:Two Warriors
01:11:26.366 : :Allies
01:14:03.023 : en:The Nest
01:16:59.365 : en:The Fire Down Below
01:20:35.956 : en:Blood of the Kill
01:21:55.704 : en:The Bitch Is Back
01:25:31.002 : en:A Warrior's Token
01:28:50.034 : en:End Titles



Скачать Чужой.против.Хищника.AVP.Alien.vs.Predator.(Пол.В.С.Андерсон).[2004.ужасы.фантастика.боевик.WEB-DL].[1080p].[Театральная.версия].[Open.Matte].[Dub]+[MVO]+[DVO]x2+[AVO]x4+[Eng]x2+[Sub.Rus.Eng]x2.torrent без регистрации
Золото ЗОЛОТАЯ РАЗДАЧА! СКАЧАННОЕ НЕ ЗАСЧИТЫВАЕТСЯ! Золото
Дата: Зарегистрирован   [ Тип: внутренний ] Как тут cкачать?
MAGNET ссылка
MAGNET ссылка


Скачать .torrent

61 KB

Статус: проверено DHT
Скачан: торрент - 10 раз, раздача полностью - 3 раз
Размер: 11,9 GB
Оценка:  - (Голосов: 0)
Поблагодарили: 0
Поделиться ссылкой на эту раздачу с друзьями:
В контактеFacebookОдноклассникиTwitterLivejournalМой МирLiveinternet
 

 
Показать сообщения:    


Вы не можете начинать темы
Вы не можете отвечать на сообщения
Вы не можете редактировать свои сообщения
Вы не можете удалять свои сообщения
Вы не можете голосовать в опросах
Вы не можете прикреплять файлы к сообщениям
Вы можете скачивать файлы