Loading...
Error

Скачать Кукушка (Александр Рогожкин) [2002, военный, драма, трагикомедия, WEB-DLRip] [1080p] торрент без регистрации

Статистика раздачи
Размер:  5,76 GB   |    Скачан:  28 раз

Полного источника не было: 5 месяцев 14 дней

 
 
 
Автор Сообщение

gelo2gelo

[] 


Кукушка


Год выпуска: 2002
Выпущено: Россия
Жанр: военный, драма, трагикомедия
Продолжительность: 01:39:19
Перевод: Не требуется

Режиссер: Александр Рогожкин

В ролях: Анни-Кристина Юусо, Виктор Бычков, Вилле Хаапасало и др.

Описание: "Кукушка" - так русские солдаты называли финских снайперов. Сентябрь 1944 года. На хутор к саами Анни попадают финский снайпер Вейко и капитан Советской армии Иван. Солдаты враждующих армий еще на знают, что Финляндия заключила перемирие и вышла из войны. Но для Анни они не враги. Для нее они просто мужчины... И все трое говорят на разных языках...







Качество: WEB-DLRip
Формат: MKV
Видео кодек: H.264
Аудио кодек: DTS, AC-3
Видео: 1920x1060, 6000 kbps, 25 fps
Аудио 1: DTS, 48 Hz, 6 ch, 1536 kbps
Аудио 2: AC3, 48 Hz, 6 ch, 384 kbps
Аудио 3: AC3, 48 Hz, 6 ch, 384 kbps


General
Unique ID : 223125537470399178179136348827155292736 (0xA7DC6A57781C523F8CEBE51E254DE240)
Complete name : L:\Кукушка\Kukushka.2002.mkv
Format : Matroska
Format version : Version 4 / Version 2
File size : 5.76 GiB
Duration : 1 h 39 min
Overall bit rate : 8 306 kb/s
Encoded date : UTC 2017-12-10 19:11:30
Writing application : mkvmerge v6.9.1 ('Blue Panther') 32bit built on Apr 18 2014 18:15:44
Writing library : libebml v1.3.0 + libmatroska v1.4.1

Video
ID : 1
Format : AVC
Format/Info : Advanced Video Codec
Format profile : High@L4.1
Format settings : CABAC / 4 Ref Frames
Format settings, CABAC : Yes
Format settings, ReFrames : 4 frames
Codec ID : V_MPEG4/ISO/AVC
Duration : 1 h 39 min
Bit rate : 6 000 kb/s
Width : 1 920 pixels
Height : 1 060 pixels
Display aspect ratio : 16:9
Frame rate mode : Constant
Frame rate : 25.000 FPS
Color space : YUV
Chroma subsampling : 4:2:0
Bit depth : 8 bits
Scan type : Progressive
Bits/(Pixel*Frame) : 0.118
Stream size : 4.05 GiB (70%)
Writing library : x264 core 152 r2851M ba24899
Encoding settings : cabac=1 / ref=4 / deblock=1:-2:-2 / analyse=0x3:0x113 / me=umh / subme=10 / psy=1 / psy_rd=1.00:0.00 / mixed_ref=1 / me_range=48 / chroma_me=1 / trellis=2 / 8x8dct=1 / cqm=0 / deadzone=6,6 / fast_pskip=0 / chroma_qp_offset=-2 / threads=9 / lookahead_threads=2 / sliced_threads=0 / nr=0 / decimate=0 / interlaced=0 / bluray_compat=0 / constrained_intra=0 / bframes=12 / b_pyramid=2 / b_adapt=2 / b_bias=0 / direct=3 / weightb=1 / open_gop=0 / weightp=2 / keyint=250 / keyint_min=25 / scenecut=40 / intra_refresh=0 / rc_lookahead=60 / rc=2pass / mbtree=1 / bitrate=6000 / ratetol=1.0 / qcomp=0.80 / qpmin=3 / qpmax=69 / qpstep=4 / cplxblur=20.0 / qblur=0.5 / ip_ratio=1.10 / aq=2:0.50
Default : Yes
Forced : No
Color range : Limited
Color primaries : BT.470 System M
Transfer characteristics : BT.470 System M
Matrix coefficients : BT.470 System B, BT.470 System G

Audio #1
ID : 2
Format : DTS
Format/Info : Digital Theater Systems
Codec ID : A_DTS
Duration : 1 h 39 min
Bit rate mode : Constant
Bit rate : 1 536 kb/s
Channel(s) : 6 channels
Channel positions : Front: L C R, Side: L R, LFE
Sampling rate : 48.0 kHz
Frame rate : 93.750 FPS (512 SPF)
Bit depth : 16 bits
Compression mode : Lossy
Stream size : 1.07 GiB (18%)
Language : Russian
Default : Yes
Forced : Yes

Audio #2
ID : 3
Format : AC-3
Format/Info : Audio Coding 3
Codec ID : A_AC3
Duration : 1 h 39 min
Bit rate mode : Constant
Bit rate : 384 kb/s
Channel(s) : 6 channels
Channel positions : Front: L C R, Side: L R, LFE
Sampling rate : 48.0 kHz
Frame rate : 31.250 FPS (1536 SPF)
Bit depth : 16 bits
Compression mode : Lossy
Stream size : 273 MiB (5%)
Language : Russian
Service kind : Complete Main
Default : No
Forced : No

Audio #3
ID : 4
Format : AC-3
Format/Info : Audio Coding 3
Codec ID : A_AC3
Duration : 1 h 39 min
Bit rate mode : Constant
Bit rate : 384 kb/s
Channel(s) : 6 channels
Channel positions : Front: L C R, Side: L R, LFE
Sampling rate : 48.0 kHz
Frame rate : 31.250 FPS (1536 SPF)
Bit depth : 16 bits
Compression mode : Lossy
Stream size : 273 MiB (5%)
Language : Russian
Service kind : Complete Main
Default : No
Forced : No





Скачать Кукушка.(Александр.Рогожкин).[2002.военный.драма.трагикомедия.WEB-DLRip].[1080p].torrent без регистрации
Золото ЗОЛОТАЯ РАЗДАЧА! СКАЧАННОЕ НЕ ЗАСЧИТЫВАЕТСЯ! Золото
Дата: Зарегистрирован   [ Тип: внутренний ] Как тут cкачать?
MAGNET ссылка
MAGNET ссылка


Скачать .torrent

29 KB

Статус: * не проверено
Скачан: торрент - 28 раз, раздача полностью - 1 раз
Размер: 5,76 GB
Оценка:  5 (Голосов: 1)
Поблагодарили: 1
Поделиться ссылкой на эту раздачу с друзьями:
В контактеFacebookОдноклассникиTwitterLivejournalМой МирLiveinternet
 

 
Показать сообщения:    


Вы не можете начинать темы
Вы не можете отвечать на сообщения
Вы не можете редактировать свои сообщения
Вы не можете удалять свои сообщения
Вы не можете голосовать в опросах
Вы не можете прикреплять файлы к сообщениям
Вы можете скачивать файлы