Loading...
Error

Скачать Трактир на Пятницкой (Александр Файнциммер) [1977, криминал, детектив, WEB-DLRip] [720p] торрент без регистрации

Статистика раздачи
Размер:  4,05 GB   |    Скачан:  20 раз
Сидов:  26  [  0 KB/s  ]  
 
 
 
Автор Сообщение

Marsianka

[] 

Трактир на Пятницкой

Страна: СССР
Производство: Мосфильм
Жанр: криминал, детектив
Год выпуска: 1977
Продолжительность: 01:25:03

Режиссер: Александр Файнциммер
В ролях:Геннадий Корольков, Тамара Семина, Константин Григорьев, Лев Прыгунов, Николай Еременко-младший, Виктор Перевалов, Александр Галибин, Марина Дюжева, Лариса Еремина, Глеб Стриженов, Юрий Назаров, Юрий Волков, Игорь Васильев, Алексей Панькин, Юрий Потемкин, Анатолий Веденкин, Владимир Дружников, Владимир Приходько, Виктор Косых, Нина Агапова, Сергей Юртайкин, Анатолий Голик, Николай Маликов, Валерий Виноградов...

Описание: Москва времен НЭПа. В Замоскворечье орудует жестокая банда, наводящая ужас на жителей района. Дерзкие налеты следуют один за другим. В них ясно прослеживается почерк известного рецидивиста по кличке «Серый», выпущенного из заключения. Излюбленное место отдыха бандитов — трактир на Пятницкой. Но поймать их с поличным никак не удается. Единственная возможность выявить преступников — внедрить в трактир своего человека…



Кодек: х264
Качество: WEB-DLRip 720p
Видео: MPEG-4 AVC, 1280x548, 25 fps, 6462 Кбит/с
Звук: AC3, 1 ch, 224 Кбит/с
Главы: Есть

    x264 [info]: frame I:625 Avg QP:18.46 size:135722
    x264 [info]: frame P:30298 Avg QP:20.03 size: 77875
    x264 [info]: frame B:96667 Avg QP:22.15 size: 18246
    x264 [info]: consecutive B-frames: 2.0% 3.1% 6.1% 37.2% 21.6% 29.3% 0.5% 0.1% 0.0%
Общее
Уникальный идентификатор : 185679275094933562861080346711052104740 (0x8BB0871083C547C893FD5AA6DEB5B424)
Полное имя : D:Трактир на Пятницкой_1977-WEB-DLRip 720p_KORSAR.mkv
Формат : Matroska
Версия формата : Version 2
Размер файла : 4,05 Гбайт
Продолжительность : 1 ч. 25 м.
Общий поток : 6822 Кбит/сек
Название фильма : Трактир на Пятницкой_1977-WEB-DLRip 720p_KORSAR
Дата кодирования : UTC 2017-11-18 14:57:51
Программа кодирования : mkvmerge v5.8.0 ('No Sleep / Pillow') built on Sep 2 2012 15:37:04
Библиотека кодирования : libebml v1.2.3 + libmatroska v1.3.0

Видео
Идентификатор : 1
Формат : AVC
Формат/Информация : Advanced Video Codec
Профиль формата : High@L4.1
Параметр CABAC формата : Да
Параметр RefFrames формата : 11 кадров
Идентификатор кодека : V_MPEG4/ISO/AVC
Продолжительность : 1 ч. 25 м.
Битрейт : 6462 Кбит/сек
Ширина : 1280 пикселей
Высота : 548 пикселей
Соотношение сторон : 2,35:1
Режим частоты кадров : Постоянный
Частота кадров : 25,000 кадров/сек
Цветовое пространство : YUV
Субдискретизация насыщенности : 4:2:0
Битовая глубина : 8 бит
Тип развёртки : Прогрессивная
Бит/(Пиксели*Кадры) : 0.369
Размер потока : 3,84 Гбайт (95%)
Библиотека кодирования : x264 core 148 r2744kMod b97ae06
Настройки программы : cabac=1 / ref=11 / deblock=1:-2:-1 / analyse=0x3:0x113 / me=umh / subme=10 / psy=1 / fade_compensate=0.00 / psy_rd=1.00:0.00 / mixed_ref=1 / me_range=40 / chroma_me=1 / trellis=2 / 8x8dct=1 / cqm=0 / deadzone=21,11 / fast_pskip=1 / chroma_qp_offset=-2 / threads=12 / lookahead_threads=2 / sliced_threads=0 / nr=0 / decimate=1 / interlaced=0 / bluray_compat=0 / constrained_intra=0 / bframes=8 / b_pyramid=2 / b_adapt=2 / b_bias=0 / direct=1 / weightb=1 / open_gop=0 / weightp=2 / keyint=250 / keyint_min=25 / scenecut=40 / intra_refresh=0 / rc=crf / mbtree=0 / crf=17.0000 / qcomp=0.60 / qpmin=0 / qpmax=39 / qpstep=4 / ip_ratio=1.40 / pb_ratio=1.30 / aq=1:0.70
Язык : English
Default : Да
Forced : Нет
Цветовой диапазон : Limited
Основные цвета : BT.709
Характеристики трансфера : BT.709
Коэффициенты матрицы : BT.709

Аудио
Идентификатор : 2
Формат : AC-3
Формат/Информация : Audio Coding 3
Параметр Endianness формата : Big
Идентификатор кодека : A_AC3
Продолжительность : 1 ч. 25 м.
Вид битрейта : Постоянный
Битрейт : 224 Кбит/сек
Каналы : 1 канал
Расположение каналов : Front: C
Частота : 48,0 КГц
Частота кадров : 31,250 кадров/сек (1536 SPF)
Битовая глубина : 16 бит
Метод сжатия : С потерями
Задержка видео : 283 мс.
Размер потока : 136 Мбайт (3%)
Язык : Russian
Default : Да
Forced : Нет

Меню
00:00:00.000 : en:Chapter 1
00:07:00.360 : en:Chapter 2
00:17:38.160 : en:Chapter 3
00:27:44.160 : en:Chapter 4
00:35:03.360 : en:Chapter 5
00:43:23.160 : en:Chapter 6
00:51:46.560 : en:Chapter 7
00:56:14.160 : en:Chapter 8
01:02:26.760 : en:Chapter 9
01:08:47.760 : en:Chapter 10
01:15:27.960 : en:Chapter 11
01:20:43.560 : en:Chapter 12



Скачать Трактир.на.Пятницкой.(Александр.Файнциммер).[1977.криминал.детектив.WEB-DLRip].[720p].torrent без регистрации
Золото ЗОЛОТАЯ РАЗДАЧА! СКАЧАННОЕ НЕ ЗАСЧИТЫВАЕТСЯ! Золото
Дата: Зарегистрирован   [ Тип: внешний ] Как тут cкачать?
MAGNET ссылка
MAGNET ссылка


Скачать .torrent

21 KB

Статус: проверено DHT
Скачан: торрент - 20 раз, раздача полностью - 19 раз
Размер: 4,05 GB
Оценка:  5 (Голосов: 1)
Поблагодарили: 4
Поделиться ссылкой на эту раздачу с друзьями:
В контактеFacebookОдноклассникиTwitterLivejournalМой МирLiveinternet
 

 
Показать сообщения:    


Вы не можете начинать темы
Вы не можете отвечать на сообщения
Вы не можете редактировать свои сообщения
Вы не можете удалять свои сообщения
Вы не можете голосовать в опросах
Вы не можете прикреплять файлы к сообщениям
Вы можете скачивать файлы