Loading...
Error

Скачать Версия / Rendition (Гэвин Худ) [2007, триллер, драма, WEB-DL] [1080p] [Open Matte] [MVO (R5)]+[Eng]x2+[Sub]x3 торрент без регистрации

Статистика раздачи
Размер:  11,93 GB   |    Скачан:  25 раз
Сидов:  1  [  0 KB/s  ]  
 
 
 
Автор Сообщение

Marsianka

[] 

Информация о фильме
Название: Версия
Оригинальное название: Rendition
Год выпуска: 2007
Жанр: триллер, драма
Режиссер: Гэвин Худ
В ролях: Джейк Джилленхол (Douglas Freeman), Риз Уизерспун (Isabella Fields El-Ibrahimi), Мэрил Стрип (Corrine Whitman), Алан Аркин (Senator Hawkins), Питер Сарсгаард (Alan Smith), Омар Метуолли (Anwar El-Ibrahimi), Игал Наор (Abasi Fawal), Хадар Ратсон Ротем (Safiya), Дж.К. Симмонс (Lee Mayer), Симон Абкарян (Said Abdel Aziz), Моа Кхуас (Khalid El-Emin), Зинеб Оукач (Fatima Fawal)

О фильме:
Когда при перелете из Африки в Америку бесследно «исчезает» египтянин Анвар, подозреваемый в терроризме, его американская жена Изабелла и аналитик ЦРУ Дуглас всеми силами пытаются вызволить его из находящейся за пределами США секретной тюрьмы, где Анвара подвергают жестоким пыткам, пытаясь «выбить» из него признание.



MPAA: R - Лицам до 17 лет обязательно присутствие взрослого

Страна: США
Студия: Anonymous Content, Level 1 Entertainment, MID Foundation, New Line Cinema
Продолжительность: 02:02:29
Перевод: Профессиональный (многоголосый, закадровый) R5

Файл
Качество: WEB-DL 1080p | Open Matte
Формат: Matroska
Видео: 1920x1080 at 23.976 fps, MPEG-4 AVC, ~11300 kbps avg
Аудио#1: Russian: 48 kHz, AC3, 3/2 (L,C,R,l,r) + LFE ch, ~448 kbps avg |Многоголосый закадровый, R5|
Аудио#2: English: 48 kHz, DTS, 3/2 (L,C,R,l,r) + LFE ch, ~1509 kbps avg
Аудио#3: English: 48 kHz, EAC3, 3/2 (L,C,R,l,r) + LFE ch, ~640 kbps avg
Субтитры: Russian, Ukrainian, English
***Исходник видео - Amazon.
***Релиз - spartanec163.
Общее
Уникальный идентификатор : 178030720703296111345660359308936442177 (0x85EF7837DBC1769C8E3A23564E6B7141)
Полное имя : Rendition.2007.Open.Matte.1080p.WEB-DL.Rus.Eng.mkv
Формат : Matroska
Версия формата : Version 4 / Version 2
Размер файла : 11,9 Гбайт
Продолжительность : 2 ч. 2 м.
Режим общего битрейта : Переменный
Общий поток : 13,9 Мбит/сек
Название фильма : Rendition.2007.Open.Matte.1080p.WEB-DL.Rus.Eng-spartanec163
Дата кодирования : UTC 2017-12-14 16:34:48
Программа кодирования : mkvmerge v8.3.0 ('Over the Horizon') 64bit
Библиотека кодирования : libebml v1.3.1 + libmatroska v1.4.2

Видео
Идентификатор : 1
Формат : AVC
Формат/Информация : Advanced Video Codec
Профиль формата : High@L4.0
Параметр CABAC формата : Да
Параметр ReFrames формата : 4 кадра
Идентификатор кодека : V_MPEG4/ISO/AVC
Продолжительность : 2 ч. 2 м.
Вид битрейта : Переменный
Битрейт : 11,1 Мбит/сек
Максимальный битрейт : 15,0 Мбит/сек
Ширина : 1920 пикселей
Высота : 1080 пикселей
Соотношение сторон : 16:9
Режим частоты кадров : Постоянный
Частота кадров : 23,976 кадра/сек
Цветовое пространство : YUV
Субдискретизация насыщенности : 4:2:0
Битовая глубина : 8 бит
Тип развёртки : Прогрессивная
Бит/(Пиксели*Кадры) : 0.223
Размер потока : 9,47 Гбайт (79%)
Заголовок : WEB-DL 1080p (Amazon)
Язык : English
Default : Да
Forced : Нет
Основные цвета : BT.709
Характеристики трансфера : BT.709
Коэффициенты матрицы : BT.709

Аудио #1
Идентификатор : 2
Формат : AC-3
Формат/Информация : Audio Coding 3
Расширение режима : CM (complete main)
Параметр Endianness формата : Big
Идентификатор кодека : A_AC3
Продолжительность : 2 ч. 2 м.
Вид битрейта : Постоянный
Битрейт : 448 Кбит/сек
Каналы : 6 каналов
Расположение каналов : Front: L C R, Side: L R, LFE
Частота : 48,0 КГц
Битовая глубина : 16 бит
Метод сжатия : С потерями
Размер потока : 393 Мбайт (3%)
Заголовок : AC3 5.1 448Kbps (Профессиональный, многоголосый - R5)
Язык : Russian
Default : Да
Forced : Нет

Аудио #2
Идентификатор : 3
Формат : DTS
Формат/Информация : Digital Theater Systems
Режим : 16
Параметр Endianness формата : Big
Идентификатор кодека : A_DTS
Продолжительность : 2 ч. 2 м.
Вид битрейта : Постоянный
Битрейт : 1509 Кбит/сек
Каналы : 6 каналов
Расположение каналов : Front: L C R, Side: L R, LFE
Частота : 48,0 КГц
Битовая глубина : 24 бит
Метод сжатия : С потерями
Размер потока : 1,29 Гбайт (11%)
Заголовок : DTS 5.1 1509Kbps (Оригинал - BluRay)
Язык : English
Default : Нет
Forced : Нет

Аудио #3
Идентификатор : 4
Формат : E-AC-3
Формат/Информация : Audio Coding 3
Параметр Endianness формата : Big
Идентификатор кодека : A_EAC3
Продолжительность : 2 ч. 2 м.
Вид битрейта : Постоянный
Битрейт : 640 Кбит/сек
Каналы : 6 каналов
Расположение каналов : Front: L C R, Side: L R, LFE
Частота : 48,0 КГц
Метод сжатия : С потерями
Размер потока : 561 Мбайт (5%)
Заголовок : E-AC3 5.1 640Kbps (Оригинал - Amazon)
Язык : English
Default : Нет
Forced : Нет

Текст #1
Идентификатор : 5
Формат : UTF-8
Идентификатор кодека : S_TEXT/UTF8
Идентификатор кодека/Информация : UTF-8 Plain Text
Язык : Russian
Default : Нет
Forced : Нет

Текст #2
Идентификатор : 6
Формат : UTF-8
Идентификатор кодека : S_TEXT/UTF8
Идентификатор кодека/Информация : UTF-8 Plain Text
Язык : Ukrainian
Default : Нет
Forced : Нет

Текст #3
Идентификатор : 7
Формат : UTF-8
Идентификатор кодека : S_TEXT/UTF8
Идентификатор кодека/Информация : UTF-8 Plain Text
Язык : English
Default : Нет
Forced : Нет

Текст #4
Идентификатор : 8
Формат : UTF-8
Идентификатор кодека : S_TEXT/UTF8
Идентификатор кодека/Информация : UTF-8 Plain Text
Заголовок : SDH, Amazon
Язык : English
Default : Нет
Forced : Нет



Скачать Версия.Rendition.(Гэвин.Худ).[2007.триллер.драма.WEB-DL].[1080p].[Open.Matte].[MVO.(R5)]+[Eng]x2+[Sub]x3.torrent без регистрации
Золото ЗОЛОТАЯ РАЗДАЧА! СКАЧАННОЕ НЕ ЗАСЧИТЫВАЕТСЯ! Золото
Дата: Зарегистрирован   [ Тип: внутренний ] Как тут cкачать?
MAGNET ссылка
MAGNET ссылка


Скачать .torrent

61 KB

Статус: проверено DHT
Скачан: торрент - 25 раз, раздача полностью - 0 раз
Размер: 11,93 GB
Оценка:  - (Голосов: 0)
Поблагодарили: 0
Поделиться ссылкой на эту раздачу с друзьями:
В контактеFacebookОдноклассникиTwitterLivejournalМой МирLiveinternet
 

 
Показать сообщения:    


Вы не можете начинать темы
Вы не можете отвечать на сообщения
Вы не можете редактировать свои сообщения
Вы не можете удалять свои сообщения
Вы не можете голосовать в опросах
Вы не можете прикреплять файлы к сообщениям
Вы можете скачивать файлы