Loading...
Error

Скачать Код да Винчи / The Da Vinci Code (Рон Ховард) [2006, триллер, драма, детектив, мистика, экранизация, UHD BDRemux] [2160p] [Театральная версия] [Лицензия] [Dub]+[Оригинал Eng]x2+[Sub Rus Eng]x2 торрент без регистрации

Статистика раздачи
Размер:  50,85 GB   |    Скачан:  33 раза
Сидов:  1  [  0 KB/s  ]  
 
 
 
Автор Сообщение

Marsianka

[] 

Информация о фильме
Название: Код Да Винчи
Оригинальное название: The Da Vinci Code
Год выхода: 2006
Жанр: триллер, драма, детектив, мистика, экранизация
Режиссер: Рон Ховард
В ролях: Жан Рено, Одри Тоту, Том Хэнкс, Пол Беттани, Иэн Маккеллен, Альфред Молина, Юрген Прохнов, Жан-Ив Бертело, Этьен Шико, Жан-Пьер Марьель, Рита Дейвис, Франческо Карнелутти, Сет Гейбл, Фаусто Мария Шиараппа, Джо Гросси, Дэнис Подалидес, Гарри Тэйлор, Дэйзи Дойдж-Хилл, Тонио Десканвей, Дэвид Барк-Джоунс, Дэвид Саракино, Ив Обер, Дез Даммонд, Хью Митчелл, Тина Мэскелл, Мари-Франсуа Одоллент, Питер Педреро, Агата Натансон, Энди Робб, Шэйн Заза, Кристофер Фош, Эндрю Кларк, Арно Клейн, Даффер Лабидин, Майкл Нортон, Норман Кэмпбелл Риис, Клив Картер, Мэттью Батлер

О фильме:
В Лувре находят испещренный знаками труп некоего Жака Соньера. На место происшествия прибывают специалист по религиозным символам, профессор Роберт Лэнгдон, комиссар полиции Фаш и сотрудница местного шифровального отдела Софи Неве. Тут выясняется, что подозрение уже пало на Лэнгдона, и тот бросается в бегство вместе с Софи, оказавшейся внучкой убитого. С помощью предусмотрительно оставленных дедом ключей девушка находит устройство под названием криптекс, в котором спрятана тайна Священного Грааля и за которым охотится монах Сайлас, посланник Совета Теней. Цель Совета - уничтожить всех потомков Иисуса Христа. Экранизация по роману Дэна Брауна.



Страна: США, Мальта, Франция, Великобритания
Студия: Columbia Pictures, Imagine Entertainment, Skylark Productions
Продолжительность: 02:28:46
Перевод: Дублированный | Лицензия

Файл
Качество: BDRemux 2160p
Видео: MPEG-H HEVC HDR Video, 3840x2160, 43.7 Mbit/s, 23.976 fps

Аудио #01: 48 kHz, AC3, 5.1, 640 Kbps | Дублированный | RUS |
Аудио #02: 48 kHz, TrueHD, 7.1, 4146 Kbps | Оригинал | ENG |
Аудио #03: 48 kHz, AC3, 5.1, 384 Kbps | Оригинал | ENG |
Субтитры: Русские (full), английские
General
Unique ID : 177079416135369924705293235077451606071 (0x85384148230BC974B4D7D420C013E837)
Complete name : I:Video1The.Da.Vinci.Code.2006.Theatrical.Cut.BDREMUX.2160p.4K.UltraHD.HEVC.HDR.ExKInoRay.mkv
Format : Matroska
Format version : Version 4 / Version 2
File size : 50.9 GiB
Duration : 2 h 28 min
Overall bit rate mode : Variable
Overall bit rate : 48.9 Mb/s
Movie name : The Da Vinci Code 2006 from ExKinoRay
Encoded date : UTC 2017-12-14 09:59:52
Writing application : mkvmerge v18.0.0 ('Apricity') 64-bit
Writing library : libebml v1.3.5 + libmatroska v1.4.8

Video
ID : 1
Format : HEVC
Format/Info : High Efficiency Video Coding
Format profile : Main 10@L5.1@High
Codec ID : V_MPEGH/ISO/HEVC
Duration : 2 h 28 min
Bit rate : 43.7 Mb/s
Width : 3 840 pixels
Height : 2 160 pixels
Display aspect ratio : 16:9
Frame rate mode : Constant
Frame rate : 23.976 (24000/1001) FPS
Color space : YUV
Chroma subsampling : 4:2:0 (Type 2)
Bit depth : 10 bits
Bits/(Pixel*Frame) : 0.220
Stream size : 45.4 GiB (89%)
Language : English
Default : Yes
Forced : No
Color range : Limited
Color primaries : BT.2020
Transfer characteristics : PQ
Matrix coefficients : BT.2020 non-constant
Mastering display color pri : R: x=0.680000 y=0.320000, G: x=0.265000 y=0.690000, B: x=0.150000 y=0.060000, White point: x=0.312700 y=0.329000
Mastering display luminance : min: 0.0050 cd/m2, max: 4000.0000 cd/m2
Maximum Content Light Level : 4897 cd/m2
Maximum Frame-Average Light : 653 cd/m2

Audio #1
ID : 2
Format : AC-3
Format/Info : Audio Coding 3
Format settings, Endianness : Big
Codec ID : A_AC3
Duration : 2 h 28 min
Bit rate mode : Constant
Bit rate : 640 kb/s
Channel(s) : 6 channels
Channel positions : Front: L C R, Side: L R, LFE
Sampling rate : 48.0 kHz
Frame rate : 31.250 FPS (1536 SPF)
Bit depth : 16 bits
Compression mode : Lossy
Stream size : 681 MiB (1%)
Title : Dub [License]
Language : Russian
Service kind : Complete Main
Default : Yes
Forced : No

Audio #2
ID : 3
Format : TrueHD
Format profile : TrueHD+Atmos / TrueHD
Codec ID : A_TRUEHD
Duration : 2 h 28 min
Bit rate mode : Variable
Bit rate : 4 146 kb/s
Maximum bit rate : 7 722 kb/s
Channel(s) : Object Based / 8 channels
Channel positions : Object Based / Front: L C R, Side: L R, Back: L R, LFE
Sampling rate : / 48.0 kHz
Frame rate : 1 200.000 FPS (40 SPF)
Compression mode : Lossless
Stream size : 4.31 GiB (8%)
Title : Original
Language : English
Default : No
Forced : No

Audio #3
ID : 4
Format : AC-3
Format/Info : Audio Coding 3
Format settings, Endianness : Big
Codec ID : A_AC3
Duration : 2 h 28 min
Bit rate mode : Constant
Bit rate : 384 kb/s
Channel(s) : 6 channels
Channel positions : Front: L C R, Side: L R, LFE
Sampling rate : 48.0 kHz
Frame rate : 31.250 FPS (1536 SPF)
Bit depth : 16 bits
Compression mode : Lossy
Stream size : 409 MiB (1%)
Language : English
Service kind : Complete Main
Default : No
Forced : No

Text #1
ID : 5
Format : UTF-8
Codec ID : S_TEXT/UTF8
Codec ID/Info : UTF-8 Plain Text
Duration : 2 h 18 min
Bit rate : 79 b/s
Count of elements : 1676
Stream size : 81.1 KiB (0%)
Title : Full
Language : Russian
Default : No
Forced : No

Text #2
ID : 6
Format : UTF-8
Codec ID : S_TEXT/UTF8
Codec ID/Info : UTF-8 Plain Text
Duration : 2 h 18 min
Bit rate : 52 b/s
Count of elements : 1649
Stream size : 53.6 KiB (0%)
Title : Full
Language : English
Default : No
Forced : No

Text #3
ID : 7
Format : UTF-8
Codec ID : S_TEXT/UTF8
Codec ID/Info : UTF-8 Plain Text
Duration : 2 h 24 min
Bit rate : 55 b/s
Count of elements : 1874
Stream size : 58.8 KiB (0%)
Title : SDH
Language : English
Default : No
Forced : No

Menu
00:00:00.000 : en:Chapter 1
00:12:54.774 : en:Chapter 2
00:28:56.359 : en:Chapter 3
00:39:59.855 : en:Chapter 4
00:41:40.873 : en:Chapter 5
00:48:21.607 : en:Chapter 6
01:04:42.879 : en:Chapter 7
01:13:04.380 : en:Chapter 8
01:24:31.357 : en:Chapter 9
01:29:25.360 : en:Chapter 10
01:36:27.072 : en:Chapter 11
01:41:42.096 : en:Chapter 12
01:51:43.363 : en:Chapter 13
02:00:03.988 : en:Chapter 14
02:11:26.420 : en:Chapter 15
02:17:03.590 : en:Chapter 16
Релиз от: Автор релиза:




Скачать Код.да.Винчи.The.Da.Vinci.Code.(Рон.Ховард).[2006.триллер.драма.детектив.мистика.экранизация.UHD.BDRemux].[2160p].[Театральная.версия].[Лицензия].[Dub]+[Оригинал.Eng]x2+[Sub.Rus.Eng]x2.torrent без регистрации
Золото ЗОЛОТАЯ РАЗДАЧА! СКАЧАННОЕ НЕ ЗАСЧИТЫВАЕТСЯ! Золото
Дата: Зарегистрирован   [ Тип: внутренний ] Как тут cкачать?
MAGNET ссылка
MAGNET ссылка


Скачать .torrent

255 KB

Статус: проверено DHT
Скачан: торрент - 33 раз, раздача полностью - 7 раз
Размер: 50,85 GB
Оценка:  - (Голосов: 0)
Поблагодарили: 0
Поделиться ссылкой на эту раздачу с друзьями:
В контактеFacebookОдноклассникиTwitterLivejournalМой МирLiveinternet
 

 
Показать сообщения:    


Вы не можете начинать темы
Вы не можете отвечать на сообщения
Вы не можете редактировать свои сообщения
Вы не можете удалять свои сообщения
Вы не можете голосовать в опросах
Вы не можете прикреплять файлы к сообщениям
Вы можете скачивать файлы